  0
SECTION
  2
HEADER
  9
$ACADVER
  1
AC1015
  9
$ACADMAINTVER
 70
    20
  9
$DWGCODEPAGE
  3
ANSI_1252
  9
$INSBASE
 10
3.378835855762886
 20
32.16022019831429
 30
0.0
  9
$EXTMIN
 10
-3.02141638608856
 20
-1.891693181454996
 30
-0.0015258207003583
  9
$EXTMAX
 10
51.85701792208465
 20
73.76970090996721
 30
0.0000000349246037
  9
$LIMMIN
 10
0.0
 20
0.0
  9
$LIMMAX
 10
12.0
 20
9.0
  9
$ORTHOMODE
 70
     1
  9
$REGENMODE
 70
     1
  9
$FILLMODE
 70
     1
  9
$QTEXTMODE
 70
     0
  9
$MIRRTEXT
 70
     1
  9
$LTSCALE
 40
2.0
  9
$ATTMODE
 70
     1
  9
$TEXTSIZE
 40
0.2
  9
$TRACEWID
 40
0.05
  9
$TEXTSTYLE
  7
ARIAL
  9
$CLAYER
  8
0
  9
$CELTYPE
  6
BYLAYER
  9
$CECOLOR
 62
   256
  9
$CELTSCALE
 40
1.0
  9
$DISPSILH
 70
     0
  9
$DIMSCALE
 40
1.5
  9
$DIMASZ
 40
0.75
  9
$DIMEXO
 40
0.125
  9
$DIMDLI
 40
0.75
  9
$DIMRND
 40
0.0
  9
$DIMDLE
 40
0.0
  9
$DIMEXE
 40
0.75
  9
$DIMTP
 40
0.0
  9
$DIMTM
 40
0.0
  9
$DIMTXT
 40
0.75
  9
$DIMCEN
 40
0.09
  9
$DIMTSZ
 40
0.0
  9
$DIMTOL
 70
     0
  9
$DIMLIM
 70
     0
  9
$DIMTIH
 70
     1
  9
$DIMTOH
 70
     1
  9
$DIMSE1
 70
     0
  9
$DIMSE2
 70
     0
  9
$DIMTAD
 70
     0
  9
$DIMZIN
 70
     0
  9
$DIMBLK
  1

  9
$DIMASO
 70
     1
  9
$DIMSHO
 70
     1
  9
$DIMPOST
  1

  9
$DIMAPOST
  1

  9
$DIMALT
 70
     1
  9
$DIMALTD
 70
     0
  9
$DIMALTF
 40
25.4
  9
$DIMLFAC
 40
1.0
  9
$DIMTOFL
 70
     0
  9
$DIMTVP
 40
0.0
  9
$DIMTIX
 70
     0
  9
$DIMSOXD
 70
     0
  9
$DIMSAH
 70
     0
  9
$DIMBLK1
  1

  9
$DIMBLK2
  1

  9
$DIMSTYLE
  2
STANDARD
  9
$DIMCLRD
 70
     0
  9
$DIMCLRE
 70
     0
  9
$DIMCLRT
 70
     0
  9
$DIMTFAC
 40
1.0
  9
$DIMGAP
 40
0.325
  9
$DIMJUST
 70
     0
  9
$DIMSD1
 70
     0
  9
$DIMSD2
 70
     0
  9
$DIMTOLJ
 70
     1
  9
$DIMTZIN
 70
     0
  9
$DIMALTZ
 70
     0
  9
$DIMALTTZ
 70
     0
  9
$DIMUPT
 70
     0
  9
$DIMDEC
 70
     4
  9
$DIMTDEC
 70
     4
  9
$DIMALTU
 70
     2
  9
$DIMALTTD
 70
     0
  9
$DIMTXSTY
  7
ARIAL
  9
$DIMAUNIT
 70
     0
  9
$DIMADEC
 70
     0
  9
$DIMALTRND
 40
0.0
  9
$DIMAZIN
 70
     0
  9
$DIMDSEP
 70
    46
  9
$DIMATFIT
 70
     3
  9
$DIMFRAC
 70
     0
  9
$DIMLDRBLK
  1

  9
$DIMLUNIT
 70
     5
  9
$DIMLWD
 70
    -2
  9
$DIMLWE
 70
    -2
  9
$DIMTMOVE
 70
     0
  9
$LUNITS
 70
     2
  9
$LUPREC
 70
     4
  9
$SKETCHINC
 40
0.1
  9
$FILLETRAD
 40
0.0
  9
$AUNITS
 70
     0
  9
$AUPREC
 70
     0
  9
$MENU
  1
.
  9
$ELEVATION
 40
0.0
  9
$PELEVATION
 40
0.0
  9
$THICKNESS
 40
0.0
  9
$LIMCHECK
 70
     0
  9
$CHAMFERA
 40
0.5
  9
$CHAMFERB
 40
0.5
  9
$CHAMFERC
 40
1.0
  9
$CHAMFERD
 40
0.0
  9
$SKPOLY
 70
     0
  9
$TDCREATE
 40
2452671.319294213
  9
$TDUCREATE
 40
2452671.527627547
  9
$TDUPDATE
 40
2454161.316849699
  9
$TDUUPDATE
 40
2454161.525183033
  9
$TDINDWG
 40
1.8279851389
  9
$TDUSRTIMER
 40
1.8279851389
  9
$USRTIMER
 70
     1
  9
$ANGBASE
 50
0.0
  9
$ANGDIR
 70
     0
  9
$PDMODE
 70
     0
  9
$PDSIZE
 40
0.0
  9
$PLINEWID
 40
0.0
  9
$SPLFRAME
 70
     0
  9
$SPLINETYPE
 70
     6
  9
$SPLINESEGS
 70
     8
  9
$HANDSEED
  5
C76
  9
$SURFTAB1
 70
     6
  9
$SURFTAB2
 70
     6
  9
$SURFTYPE
 70
     6
  9
$SURFU
 70
     6
  9
$SURFV
 70
     6
  9
$UCSBASE
  2

  9
$UCSNAME
  2

  9
$UCSORG
 10
0.0
 20
0.0
 30
0.0
  9
$UCSXDIR
 10
1.0
 20
0.0
 30
0.0
  9
$UCSYDIR
 10
0.0
 20
1.0
 30
0.0
  9
$UCSORTHOREF
  2

  9
$UCSORTHOVIEW
 70
     0
  9
$UCSORGTOP
 10
0.0
 20
0.0
 30
0.0
  9
$UCSORGBOTTOM
 10
0.0
 20
0.0
 30
0.0
  9
$UCSORGLEFT
 10
0.0
 20
0.0
 30
0.0
  9
$UCSORGRIGHT
 10
0.0
 20
0.0
 30
0.0
  9
$UCSORGFRONT
 10
0.0
 20
0.0
 30
0.0
  9
$UCSORGBACK
 10
0.0
 20
0.0
 30
0.0
  9
$PUCSBASE
  2

  9
$PUCSNAME
  2

  9
$PUCSORG
 10
0.0
 20
0.0
 30
0.0
  9
$PUCSXDIR
 10
1.0
 20
0.0
 30
0.0
  9
$PUCSYDIR
 10
0.0
 20
1.0
 30
0.0
  9
$PUCSORTHOREF
  2

  9
$PUCSORTHOVIEW
 70
     0
  9
$PUCSORGTOP
 10
0.0
 20
0.0
 30
0.0
  9
$PUCSORGBOTTOM
 10
0.0
 20
0.0
 30
0.0
  9
$PUCSORGLEFT
 10
0.0
 20
0.0
 30
0.0
  9
$PUCSORGRIGHT
 10
0.0
 20
0.0
 30
0.0
  9
$PUCSORGFRONT
 10
0.0
 20
0.0
 30
0.0
  9
$PUCSORGBACK
 10
0.0
 20
0.0
 30
0.0
  9
$USERI1
 70
     0
  9
$USERI2
 70
     0
  9
$USERI3
 70
     0
  9
$USERI4
 70
     0
  9
$USERI5
 70
     0
  9
$USERR1
 40
0.0
  9
$USERR2
 40
0.0
  9
$USERR3
 40
0.0
  9
$USERR4
 40
0.0
  9
$USERR5
 40
0.0
  9
$WORLDVIEW
 70
     1
  9
$SHADEDGE
 70
     3
  9
$SHADEDIF
 70
    70
  9
$TILEMODE
 70
     1
  9
$MAXACTVP
 70
    48
  9
$PINSBASE
 10
0.0
 20
0.0
 30
0.0
  9
$PLIMCHECK
 70
     0
  9
$PEXTMIN
 10
1.000000000000000E+20
 20
1.000000000000000E+20
 30
1.000000000000000E+20
  9
$PEXTMAX
 10
-1.000000000000000E+20
 20
-1.000000000000000E+20
 30
-1.000000000000000E+20
  9
$PLIMMIN
 10
0.0
 20
0.0
  9
$PLIMMAX
 10
12.0
 20
9.0
  9
$UNITMODE
 70
     0
  9
$VISRETAIN
 70
     1
  9
$PLINEGEN
 70
     0
  9
$PSLTSCALE
 70
     1
  9
$TREEDEPTH
 70
  3020
  9
$CMLSTYLE
  2
STANDARD
  9
$CMLJUST
 70
     0
  9
$CMLSCALE
 40
1.0
  9
$PROXYGRAPHICS
 70
     1
  9
$MEASUREMENT
 70
     0
  9
$CELWEIGHT
370
    -1
  9
$ENDCAPS
280
     0
  9
$JOINSTYLE
280
     0
  9
$LWDISPLAY
290
     0
  9
$INSUNITS
 70
     0
  9
$HYPERLINKBASE
  1

  9
$STYLESHEET
  1

  9
$XEDIT
290
     1
  9
$CEPSNTYPE
380
     0
  9
$PSTYLEMODE
290
     1
  9
$FINGERPRINTGUID
  2
{5042FEBE-EA51-408D-A6A3-29B46E27A0D1}
  9
$VERSIONGUID
  2
{ABA77BAE-4576-49E9-AD0D-679D042D442E}
  9
$EXTNAMES
290
     1
  9
$PSVPSCALE
 40
0.0
  9
$OLESTARTUP
290
     0
  0
ENDSEC
  0
SECTION
  2
CLASSES
  0
CLASS
  1
DICTIONARYVAR
  2
AcDbDictionaryVar
  3
ObjectDBX Classes
 90
        0
280
     0
281
     0
  0
CLASS
  1
HATCH
  2
AcDbHatch
  3
ObjectDBX Classes
 90
        0
280
     0
281
     1
  0
CLASS
  1
LWPOLYLINE
  2
AcDbPolyline
  3
ObjectDBX Classes
 90
    32768
280
     0
281
     1
  0
CLASS
  1
XRECORD
  2
AcDbXrecord
  3
ObjectDBX Classes
 90
        0
280
     0
281
     0
  0
CLASS
  1
ACDBDICTIONARYWDFLT
  2
AcDbDictionaryWithDefault
  3
ObjectDBX Classes
 90
        0
280
     0
281
     0
  0
CLASS
  1
ACDBPLACEHOLDER
  2
AcDbPlaceHolder
  3
ObjectDBX Classes
 90
        0
280
     0
281
     0
  0
CLASS
  1
LAYOUT
  2
AcDbLayout
  3
ObjectDBX Classes
 90
        0
280
     0
281
     0
  0
CLASS
  1
LONG_TRANSACTION
  2
AcDbLongTransaction
  3
ObjectDBX Classes
 90
    32768
280
     0
281
     0
  0
CLASS
  1
LWPOLYLINE
  2
AcDbPolyline
  3
ObjectDBX Classes
 90
    32768
280
     0
281
     1
  0
CLASS
  1
HATCH
  2
AcDbHatch
  3
ObjectDBX Classes
 90
        0
280
     0
281
     1
  0
CLASS
  1
XRECORD
  2
AcDbXrecord
  3
ObjectDBX Classes
 90
        0
280
     0
281
     0
  0
CLASS
  1
LONG_TRANSACTION
  2
AcDbLongTransaction
  3
ObjectDBX Classes
 90
    32768
280
     0
281
     0
  0
CLASS
  1
LWPOLYLINE
  2
AcDbPolyline
  3
ObjectDBX Classes
 90
    32768
280
     0
281
     1
  0
CLASS
  1
HATCH
  2
AcDbHatch
  3
ObjectDBX Classes
 90
        0
280
     0
281
     1
  0
CLASS
  1
XRECORD
  2
AcDbXrecord
  3
ObjectDBX Classes
 90
        0
280
     0
281
     0
  0
CLASS
  1
DIMASSOC
  2
AcDbDimAssoc
  3
"AcDbDimAssoc|Product Desc:     AcDim ARX App For Dimension|Company:          Autodesk, Inc.|WEB Address:      www.autodesk.com"
 90
    32768
280
     0
281
     0
  0
CLASS
  1
LONG_TRANSACTION
  2
AcDbLongTransaction
  3
ObjectDBX Classes
 90
    32768
280
     0
281
     0
  0
CLASS
  1
LWPOLYLINE
  2
AcDbPolyline
  3
ObjectDBX Classes
 90
    32768
280
     0
281
     1
  0
CLASS
  1
HATCH
  2
AcDbHatch
  3
ObjectDBX Classes
 90
        0
280
     0
281
     1
  0
CLASS
  1
XRECORD
  2
AcDbXrecord
  3
ObjectDBX Classes
 90
        0
280
     0
281
     0
  0
CLASS
  1
LONG_TRANSACTION
  2
AcDbLongTransaction
  3
ObjectDBX Classes
 90
    32768
280
     0
281
     0
  0
CLASS
  1
LWPOLYLINE
  2
AcDbPolyline
  3
ObjectDBX Classes
 90
    32768
280
     0
281
     1
  0
CLASS
  1
HATCH
  2
AcDbHatch
  3
ObjectDBX Classes
 90
        0
280
     0
281
     1
  0
CLASS
  1
XRECORD
  2
AcDbXrecord
  3
ObjectDBX Classes
 90
        0
280
     0
281
     0
  0
CLASS
  1
AMLOADER
  2
AMLoader
  3
AMAcad
 90
        0
280
     0
281
     0
  0
CLASS
  1
TABLESTYLE
  2
AcDbTableStyle
  3
ObjectDBX Classes
 90
     2047
280
     0
281
     0
  0
CLASS
  1
SORTENTSTABLE
  2
AcDbSortentsTable
  3
ObjectDBX Classes
 90
        0
280
     0
281
     0
  0
ENDSEC
  0
SECTION
  2
TABLES
  0
TABLE
  2
VPORT
  5
1C
330
0
100
AcDbSymbolTable
 70
     2
  0
VPORT
  5
C70
330
1C
100
AcDbSymbolTableRecord
100
AcDbViewportTableRecord
  2
*Active
 70
     0
 10
0.0
 20
0.0
 11
1.0
 21
1.0
 12
24.41780076799805
 22
35.93900386425611
 13
0.0
 23
0.0
 14
0.5
 24
0.5
 15
0.5
 25
0.5
 16
0.0
 26
0.0
 36
1.0
 17
0.0
 27
0.0
 37
0.0
 40
76.2509633960307
 41
1.603381014304291
 42
50.0
 43
0.0
 44
0.0
 50
0.0
 51
0.0
 71
     0
 72
   100
 73
     1
 74
     0
 75
     0
 76
     0
 77
     0
 78
     0
281
     0
 65
     1
110
0.0
120
0.0
130
0.0
111
1.0
121
0.0
131
0.0
112
0.0
122
1.0
132
0.0
 79
     0
146
0.0
  0
ENDTAB
  0
TABLE
  2
LTYPE
  5
17
330
0
100
AcDbSymbolTable
 70
     3
  0
LTYPE
  5
18
330
17
100
AcDbSymbolTableRecord
100
AcDbLinetypeTableRecord
  2
BYBLOCK
 70
     0
  3

 72
    65
 73
     0
 40
0.0
  0
LTYPE
  5
19
330
17
100
AcDbSymbolTableRecord
100
AcDbLinetypeTableRecord
  2
BYLAYER
 70
     0
  3

 72
    65
 73
     0
 40
0.0
  0
LTYPE
  5
9
330
17
100
AcDbSymbolTableRecord
100
AcDbLinetypeTableRecord
  2
CONTINUOUS
 70
     0
  3
Solid line
 72
    65
 73
     0
 40
0.0
  0
LTYPE
  5
AB
330
17
100
AcDbSymbolTableRecord
100
AcDbLinetypeTableRecord
  2
CENTER
 70
     0
  3
Center ____ _ ____ _ ____ _ ____ _ ____ _ ____
 72
    65
 73
     4
 40
2.0
 49
1.25
 74
     0
 49
-0.25
 74
     0
 49
0.25
 74
     0
 49
-0.25
 74
     0
  0
LTYPE
  5
85E
330
17
100
AcDbSymbolTableRecord
100
AcDbLinetypeTableRecord
  2
HIDDEN
 70
     0
  3
Hidden __ __ __ __ __ __ __ __ __ __ __ __ __ _
 72
    65
 73
     2
 40
0.375
 49
0.25
 74
     0
 49
-0.125
 74
     0
  0
ENDTAB
  0
TABLE
  2
LAYER
  5
12
330
0
100
AcDbSymbolTable
 70
     3
  0
LAYER
  5
5
330
12
100
AcDbSymbolTableRecord
100
AcDbLayerTableRecord
  2
0
 70
     0
 62
     7
  6
CONTINUOUS
370
    -3
390
6
  0
LAYER
  5
37
330
12
100
AcDbSymbolTableRecord
100
AcDbLayerTableRecord
  2
DEFPOINTS
 70
     0
 62
     7
  6
CONTINUOUS
290
     0
370
    -3
390
6
  0
LAYER
  5
28
330
12
100
AcDbSymbolTableRecord
100
AcDbLayerTableRecord
  2
AM_VIS
 70
     0
 62
     7
  6
CONTINUOUS
370
    30
390
6
  0
ENDTAB
  0
TABLE
  2
STYLE
  5
13
330
0
100
AcDbSymbolTable
 70
     2
  0
STYLE
  5
14
330
13
100
AcDbSymbolTableRecord
100
AcDbTextStyleTableRecord
  2
STANDARD
 70
     0
 40
0.0
 41
1.0
 50
0.0
 71
     0
 42
0.2
  3
ARIAL.TTF
  4

1001
ACAD
1000
Arial
1071
       34
  0
STYLE
  5
25
330
13
100
AcDbSymbolTableRecord
100
AcDbTextStyleTableRecord
  2
ARIAL
 70
     0
 40
0.0
 41
1.0
 50
0.0
 71
     0
 42
0.2
  3
ARIAL.TTF
  4

1001
ACAD
1000
Arial
1071
       34
  0
ENDTAB
  0
TABLE
  2
VIEW
  5
1A
330
0
100
AcDbSymbolTable
 70
     0
  0
ENDTAB
  0
TABLE
  2
UCS
  5
1B
330
0
100
AcDbSymbolTable
 70
     0
  0
ENDTAB
  0
TABLE
  2
APPID
  5
1E
330
0
100
AcDbSymbolTable
 70
     3
  0
APPID
  5
15
330
1E
100
AcDbSymbolTableRecord
100
AcDbRegAppTableRecord
  2
ACAD
 70
     0
  0
APPID
  5
801
330
1E
100
AcDbSymbolTableRecord
100
AcDbRegAppTableRecord
  2
AMAcad
 70
     0
  0
APPID
  5
95F
330
1E
100
AcDbSymbolTableRecord
100
AcDbRegAppTableRecord
  2
ACAD_EXEMPT_FROM_CAD_STANDARDS
 70
     0
  0
ENDTAB
  0
TABLE
  2
DIMSTYLE
  5
1F
330
0
100
AcDbSymbolTable
 70
     1
100
AcDbDimStyleTable
 71
     1
340
20
  0
DIMSTYLE
105
20
102
{ACAD_REACTORS
330
657
330
663
330
667
330
674
330
67D
330
698
330
899
330
89C
330
89F
330
8BA
330
8BB
330
967
330
BE8
102
}
330
1F
100
AcDbSymbolTableRecord
100
AcDbDimStyleTableRecord
  2
STANDARD
 70
     0
340
14
  0
ENDTAB
  0
TABLE
  2
BLOCK_RECORD
  5
1
330
0
100
AcDbSymbolTable
 70
    17
  0
BLOCK_RECORD
  5
2
102
{ACAD_XDICTIONARY
360
3
102
}
330
1
100
AcDbSymbolTableRecord
100
AcDbBlockTableRecord
  2
*MODEL_SPACE
340
B
  0
BLOCK_RECORD
  5
D
102
{ACAD_XDICTIONARY
360
E
102
}
330
1
100
AcDbSymbolTableRecord
100
AcDbBlockTableRecord
  2
*PAPER_SPACE
340
11
  0
BLOCK_RECORD
  5
6C4
330
1
100
AcDbSymbolTableRecord
100
AcDbBlockTableRecord
  2
*D0
340
0
  0
BLOCK_RECORD
  5
6DE
330
1
100
AcDbSymbolTableRecord
100
AcDbBlockTableRecord
  2
*D1
340
0
  0
BLOCK_RECORD
  5
6EB
330
1
100
AcDbSymbolTableRecord
100
AcDbBlockTableRecord
  2
*D2
340
0
  0
BLOCK_RECORD
  5
705
330
1
100
AcDbSymbolTableRecord
100
AcDbBlockTableRecord
  2
*D3
340
0
  0
BLOCK_RECORD
  5
712
330
1
100
AcDbSymbolTableRecord
100
AcDbBlockTableRecord
  2
*D4
340
0
  0
BLOCK_RECORD
  5
71F
330
1
100
AcDbSymbolTableRecord
100
AcDbBlockTableRecord
  2
*D5
340
0
  0
BLOCK_RECORD
  5
8CA
330
1
100
AcDbSymbolTableRecord
100
AcDbBlockTableRecord
  2
*D6
340
0
  0
BLOCK_RECORD
  5
8D7
330
1
100
AcDbSymbolTableRecord
100
AcDbBlockTableRecord
  2
*D7
340
0
  0
BLOCK_RECORD
  5
8E4
330
1
100
AcDbSymbolTableRecord
100
AcDbBlockTableRecord
  2
*D8
340
0
  0
BLOCK_RECORD
  5
8FE
330
1
100
AcDbSymbolTableRecord
100
AcDbBlockTableRecord
  2
*D9
340
0
  0
BLOCK_RECORD
  5
90B
330
1
100
AcDbSymbolTableRecord
100
AcDbBlockTableRecord
  2
*D10
340
0
  0
BLOCK_RECORD
  5
968
330
1
100
AcDbSymbolTableRecord
100
AcDbBlockTableRecord
  2
*D11
340
0
  0
BLOCK_RECORD
  5
BE9
330
1
100
AcDbSymbolTableRecord
100
AcDbBlockTableRecord
  2
*D14
340
0
  0
ENDTAB
  0
ENDSEC
  0
SECTION
  2
BLOCKS
  0
BLOCK
  5
4
330
2
100
AcDbEntity
  8
0
100
AcDbBlockBegin
  2
*MODEL_SPACE
 70
     0
 10
0.0
 20
0.0
 30
0.0
  3
*MODEL_SPACE
  1

  0
ENDBLK
  5
A
330
2
100
AcDbEntity
  8
0
100
AcDbBlockEnd
  0
BLOCK
  5
F
330
D
100
AcDbEntity
 67
     1
  8
0
100
AcDbBlockBegin
  2
*PAPER_SPACE
 70
     0
 10
0.0
 20
0.0
 30
0.0
  3
*PAPER_SPACE
  1

  0
ENDBLK
  5
10
330
D
100
AcDbEntity
 67
     1
  8
0
100
AcDbBlockEnd
  0
BLOCK
  5
6CF
330
6C4
100
AcDbEntity
  8
0
100
AcDbBlockBegin
  2
*D0
 70
     1
 10
0.0
 20
0.0
 30
0.0
  3
*D0
  1

  0
LINE
  5
743
330
6C4
100
AcDbEntity
  8
0
 62
     0
370
    -2
100
AcDbLine
 10
24.26523762741971
 20
3.099117304386396
 30
0.0
 11
24.26523762741971
 21
-1.889200204383385
 31
0.0
  0
LINE
  5
744
330
6C4
100
AcDbEntity
  8
0
 62
     0
370
    -2
100
AcDbLine
 10
12.26523762741971
 20
4.725070663204334
 30
0.0
 11
12.26523762741971
 21
-1.889200204383385
 31
0.0
  0
LINE
  5
745
330
6C4
100
AcDbEntity
  8
0
 62
     0
370
    -2
100
AcDbLine
 10
23.14023762741971
 20
-0.7642002043833856
 30
0.0
 11
21.45626764106227
 21
-0.7642002043833856
 31
0.0
  0
LINE
  5
746
330
6C4
100
AcDbEntity
  8
0
 62
     0
370
    -2
100
AcDbLine
 10
13.39023762741971
 20
-0.7642002043833856
 30
0.0
 11
15.07420761377714
 21
-0.7642002043833856
 31
0.0
  0
SOLID
  5
747
330
6C4
100
AcDbEntity
  8
0
 62
     0
100
AcDbTrace
 10
23.14023762741971
 20
-0.5767002043833856
 30
0.0
 11
23.14023762741971
 21
-0.9517002043833855
 31
0.0
 12
24.26523762741971
 22
-0.7642002043833856
 32
0.0
 13
24.26523762741971
 23
-0.7642002043833856
 33
0.0
  0
SOLID
  5
748
330
6C4
100
AcDbEntity
  8
0
 62
     0
100
AcDbTrace
 10
13.39023762741971
 20
-0.5767002043833856
 30
0.0
 11
13.39023762741971
 21
-0.9517002043833855
 31
0.0
 12
12.26523762741971
 22
-0.7642002043833856
 32
0.0
 13
12.26523762741971
 23
-0.7642002043833856
 33
0.0
  0
MTEXT
  5
749
330
6C4
100
AcDbEntity
  8
0
 62
     0
100
AcDbMText
 10
18.2652376274197
 20
-0.7642002043833856
 30
0.0
 40
1.125
 41
0.0
 71
     5
 72
     1
  1
\A1;12 [305]
  7
ARIAL
 73
     1
 44
1.0
1001
ACAD
1000
MTEXTBEGIN
1070
    73
1070
     1
1070
    44
1040
1.0
1070
    74
1070
     0
1000
MTEXTEND
  0
POINT
  5
74A
330
6C4
100
AcDbEntity
  8
DEFPOINTS
 62
     0
100
AcDbPoint
 10
24.26523762741971
 20
3.286617304386396
 30
0.0
  0
POINT
  5
74B
330
6C4
100
AcDbEntity
  8
DEFPOINTS
 62
     0
100
AcDbPoint
 10
12.26523762741971
 20
4.912570663204334
 30
0.0
  0
POINT
  5
74C
330
6C4
100
AcDbEntity
  8
DEFPOINTS
 62
     0
100
AcDbPoint
 10
12.26523762741971
 20
-0.7642002043833856
 30
0.0
  0
ENDBLK
  5
6D0
330
6C4
100
AcDbEntity
  8
0
100
AcDbBlockEnd
  0
BLOCK
  5
6E9
330
6DE
100
AcDbEntity
  8
0
100
AcDbBlockBegin
  2
*D1
 70
     1
 10
0.0
 20
0.0
 30
0.0
  3
*D1
  1

  0
LINE
  5
7CF
330
6DE
100
AcDbEntity
  8
0
 62
     0
370
    -2
100
AcDbLine
 10
21.95273762741971
 20
35.28757066320432
 30
0.0
 11
28.54925951607249
 21
35.28757066320432
 31
0.0
  0
LINE
  5
7D0
330
6DE
100
AcDbEntity
  8
0
 62
     0
370
    -2
100
AcDbLine
 10
21.97927162776203
 20
20.28757066320434
 30
0.0
 11
28.54925951607248
 21
20.28757066320433
 31
0.0
  0
LINE
  5
7D1
330
6DE
100
AcDbEntity
  8
0
 62
     0
370
    -2
100
AcDbLine
 10
27.42425951607249
 20
34.16257066320432
 30
0.0
 11
27.42425951607249
 21
28.99603757998468
 31
0.0
  0
LINE
  5
7D2
330
6DE
100
AcDbEntity
  8
0
 62
     0
370
    -2
100
AcDbLine
 10
27.42425951607248
 20
21.41257066320433
 30
0.0
 11
27.42425951607249
 21
26.57910374642397
 31
0.0
  0
SOLID
  5
7D3
330
6DE
100
AcDbEntity
  8
0
 62
     0
100
AcDbTrace
 10
27.23675951607249
 20
34.16257066320432
 30
0.0
 11
27.61175951607249
 21
34.16257066320432
 31
0.0
 12
27.42425951607249
 22
35.28757066320432
 32
0.0
 13
27.42425951607249
 23
35.28757066320432
 33
0.0
  0
SOLID
  5
7D4
330
6DE
100
AcDbEntity
  8
0
 62
     0
100
AcDbTrace
 10
27.23675951607248
 20
21.41257066320433
 30
0.0
 11
27.61175951607248
 21
21.41257066320433
 31
0.0
 12
27.42425951607248
 22
20.28757066320433
 32
0.0
 13
27.42425951607248
 23
20.28757066320433
 33
0.0
  0
MTEXT
  5
7D5
330
6DE
100
AcDbEntity
  8
0
 62
     0
100
AcDbMText
 10
27.42425951607248
 20
27.78757066320434
 30
0.0
 40
1.125
 41
0.0
 71
     5
 72
     1
  1
\A1;15 [381]
  7
ARIAL
 73
     1
 44
1.0
1001
ACAD
1000
MTEXTBEGIN
1070
    73
1070
     1
1070
    44
1040
1.0
1070
    74
1070
     0
1000
MTEXTEND
  0
POINT
  5
7D6
330
6DE
100
AcDbEntity
  8
DEFPOINTS
 62
     0
100
AcDbPoint
 10
21.76523762741971
 20
35.28757066320432
 30
0.0
  0
POINT
  5
7D7
330
6DE
100
AcDbEntity
  8
DEFPOINTS
 62
     0
100
AcDbPoint
 10
21.79177162776202
 20
20.28757066320434
 30
0.0
  0
POINT
  5
7D8
330
6DE
100
AcDbEntity
  8
DEFPOINTS
 62
     0
100
AcDbPoint
 10
27.42425951607248
 20
20.28757066320433
 30
0.0
  0
ENDBLK
  5
6EA
330
6DE
100
AcDbEntity
  8
0
100
AcDbBlockEnd
  0
BLOCK
  5
6F6
330
6EB
100
AcDbEntity
  8
0
100
AcDbBlockBegin
  2
*D2
 70
     1
 10
0.0
 20
0.0
 30
0.0
  3
*D2
  1

  0
LINE
  5
954
330
6EB
100
AcDbEntity
  8
0
 62
     0
370
    -2
100
AcDbLine
 10
13.07773762741971
 20
35.28757066320432
 30
0.0
 11
-0.904850426122871
 21
35.28757066320432
 31
0.0
  0
LINE
  5
955
330
6EB
100
AcDbEntity
  8
0
 62
     0
370
    -2
100
AcDbLine
 10
6.023275079040899
 20
4.912570663204348
 30
0.0
 11
-0.9048504261228778
 21
4.91257066320435
 31
0.0
  0
LINE
  5
956
330
6EB
100
AcDbEntity
  8
0
 62
     0
370
    -2
100
AcDbLine
 10
0.2201495738771284
 20
34.16257066320432
 30
0.0
 11
0.2201495738771255
 21
21.14577310206636
 31
0.0
  0
LINE
  5
957
330
6EB
100
AcDbEntity
  8
0
 62
     0
370
    -2
100
AcDbLine
 10
0.2201495738771221
 20
6.03757066320435
 30
0.0
 11
0.2201495738771246
 21
17.18509779510864
 31
0.0
  0
SOLID
  5
958
330
6EB
100
AcDbEntity
  8
0
 62
     0
100
AcDbTrace
 10
0.0326495738771284
 20
34.16257066320432
 30
0.0
 11
0.4076495738771284
 21
34.16257066320432
 31
0.0
 12
0.2201495738771286
 22
35.28757066320432
 32
0.0
 13
0.2201495738771286
 23
35.28757066320432
 33
0.0
  0
SOLID
  5
959
330
6EB
100
AcDbEntity
  8
0
 62
     0
100
AcDbTrace
 10
0.0326495738771222
 20
6.03757066320435
 30
0.0
 11
0.4076495738771222
 21
6.03757066320435
 31
0.0
 12
0.2201495738771219
 22
4.91257066320435
 32
0.0
 13
0.2201495738771219
 23
4.91257066320435
 33
0.0
  0
MTEXT
  5
95A
330
6EB
100
AcDbEntity
  8
0
 62
     0
100
AcDbMText
 10
0.220149573877122
 20
19.1654354485875
 30
0.0
 40
1.125
 41
0.0
 71
     5
 72
     1
  1
\A1;30{\H1.000000x;\S3/8;} [772]
  7
ARIAL
 73
     1
 44
1.0
1001
ACAD
1000
MTEXTBEGIN
1070
    73
1070
     1
1070
    44
1040
1.0
1070
    74
1070
     0
1000
MTEXTEND
  0
POINT
  5
95B
330
6EB
100
AcDbEntity
  8
DEFPOINTS
 62
     0
100
AcDbPoint
 10
13.26523762741971
 20
35.28757066320432
 30
0.0
  0
POINT
  5
95C
330
6EB
100
AcDbEntity
  8
DEFPOINTS
 62
     0
100
AcDbPoint
 10
6.210775079040899
 20
4.912570663204348
 30
0.0
  0
POINT
  5
95D
330
6EB
100
AcDbEntity
  8
DEFPOINTS
 62
     0
100
AcDbPoint
 10
0.2201495738771219
 20
4.91257066320435
 30
0.0
  0
ENDBLK
  5
6F7
330
6EB
100
AcDbEntity
  8
0
100
AcDbBlockEnd
  0
BLOCK
  5
710
330
705
100
AcDbEntity
  8
0
100
AcDbBlockBegin
  2
*D3
 70
     1
 10
0.0
 20
0.0
 30
0.0
  3
*D3
  1

  0
LINE
  5
7E3
330
705
100
AcDbEntity
  8
0
 62
     0
370
    -2
100
AcDbLine
 10
12.76523762741971
 20
34.97507066320434
 30
0.0
 11
12.76523762741971
 21
39.26923025882725
 31
0.0
  0
LINE
  5
7E4
330
705
100
AcDbEntity
  8
0
 62
     0
370
    -2
100
AcDbLine
 10
12.26523762741971
 20
35.73706648914066
 30
0.0
 11
12.26523762741971
 21
39.26923025882725
 31
0.0
  0
LINE
  5
7E5
330
705
100
AcDbEntity
  8
0
 62
     0
370
    -2
100
AcDbLine
 10
13.89023762741971
 20
38.14423025882725
 30
0.0
 11
15.01523762741971
 21
38.14423025882725
 31
0.0
  0
LINE
  5
7E6
330
705
100
AcDbEntity
  8
0
 62
     0
370
    -2
100
AcDbLine
 10
11.14023762741971
 20
38.14423025882725
 30
0.0
 11
10.01523762741971
 21
38.14423025882725
 31
0.0
  0
SOLID
  5
7E7
330
705
100
AcDbEntity
  8
0
 62
     0
100
AcDbTrace
 10
13.89023762741971
 20
38.33173025882725
 30
0.0
 11
13.89023762741971
 21
37.95673025882725
 31
0.0
 12
12.76523762741971
 22
38.14423025882725
 32
0.0
 13
12.76523762741971
 23
38.14423025882725
 33
0.0
  0
SOLID
  5
7E8
330
705
100
AcDbEntity
  8
0
 62
     0
100
AcDbTrace
 10
11.14023762741971
 20
38.33173025882725
 30
0.0
 11
11.14023762741971
 21
37.95673025882725
 31
0.0
 12
12.26523762741971
 22
38.14423025882725
 32
0.0
 13
12.26523762741971
 23
38.14423025882725
 33
0.0
  0
MTEXT
  5
7E9
330
705
100
AcDbEntity
  8
0
 62
     0
100
AcDbMText
 10
7.6395640257826
 20
38.14423025882725
 30
0.0
 40
1.125
 41
0.0
 71
     5
 72
     1
  1
\A1;{\H1.000000x;\S1/2;} [13]
  7
ARIAL
 73
     1
 44
1.0
1001
ACAD
1000
MTEXTBEGIN
1070
    73
1070
     1
1070
    44
1040
1.0
1070
    74
1070
     0
1000
MTEXTEND
  0
POINT
  5
7EA
330
705
100
AcDbEntity
  8
DEFPOINTS
 62
     0
100
AcDbPoint
 10
12.76523762741971
 20
34.78757066320433
 30
0.0
  0
POINT
  5
7EB
330
705
100
AcDbEntity
  8
DEFPOINTS
 62
     0
100
AcDbPoint
 10
12.26523762741971
 20
35.54956648914066
 30
0.0
  0
POINT
  5
7EC
330
705
100
AcDbEntity
  8
DEFPOINTS
 62
     0
100
AcDbPoint
 10
12.26523762741971
 20
38.14423025882725
 30
0.0
  0
ENDBLK
  5
711
330
705
100
AcDbEntity
  8
0
100
AcDbBlockEnd
  0
BLOCK
  5
71D
330
712
100
AcDbEntity
  8
0
100
AcDbBlockBegin
  2
*D4
 70
     1
 10
0.0
 20
0.0
 30
0.0
  3
*D4
  1

  0
LINE
  5
7ED
330
712
100
AcDbEntity
  8
0
 62
     0
370
    -2
100
AcDbLine
 10
12.76523762741971
 20
35.47507066320432
 30
0.0
 11
12.76523762741971
 21
39.26147465124095
 31
0.0
  0
LINE
  5
7EE
330
712
100
AcDbEntity
  8
0
 62
     0
370
    -2
100
AcDbLine
 10
21.76523762741971
 20
34.97507066320432
 30
0.0
 11
21.76523762741971
 21
39.26147465124095
 31
0.0
  0
LINE
  5
7EF
330
712
100
AcDbEntity
  8
0
 62
     0
370
    -2
100
AcDbLine
 10
13.89023762741971
 20
38.13647465124095
 30
0.0
 11
14.45828844597359
 21
38.13647465124095
 31
0.0
  0
LINE
  5
7F0
330
712
100
AcDbEntity
  8
0
 62
     0
370
    -2
100
AcDbLine
 10
20.64023762741971
 20
38.13647465124095
 30
0.0
 11
20.07218680886582
 21
38.13647465124095
 31
0.0
  0
SOLID
  5
7F1
330
712
100
AcDbEntity
  8
0
 62
     0
100
AcDbTrace
 10
13.89023762741971
 20
38.32397465124095
 30
0.0
 11
13.89023762741971
 21
37.94897465124094
 31
0.0
 12
12.76523762741971
 22
38.13647465124095
 32
0.0
 13
12.76523762741971
 23
38.13647465124095
 33
0.0
  0
SOLID
  5
7F2
330
712
100
AcDbEntity
  8
0
 62
     0
100
AcDbTrace
 10
20.64023762741971
 20
38.32397465124095
 30
0.0
 11
20.64023762741971
 21
37.94897465124094
 31
0.0
 12
21.76523762741971
 22
38.13647465124095
 32
0.0
 13
21.76523762741971
 23
38.13647465124095
 33
0.0
  0
MTEXT
  5
7F3
330
712
100
AcDbEntity
  8
0
 62
     0
100
AcDbMText
 10
17.26523762741971
 20
38.13647465124095
 30
0.0
 40
1.125
 41
0.0
 71
     5
 72
     1
  1
\A1;9 [229]
  7
ARIAL
 73
     1
 44
1.0
1001
ACAD
1000
MTEXTBEGIN
1070
    73
1070
     1
1070
    44
1040
1.0
1070
    74
1070
     0
1000
MTEXTEND
  0
POINT
  5
7F4
330
712
100
AcDbEntity
  8
DEFPOINTS
 62
     0
100
AcDbPoint
 10
12.76523762741971
 20
35.28757066320432
 30
0.0
  0
POINT
  5
7F5
330
712
100
AcDbEntity
  8
DEFPOINTS
 62
     0
100
AcDbPoint
 10
21.76523762741971
 20
34.78757066320432
 30
0.0
  0
POINT
  5
7F6
330
712
100
AcDbEntity
  8
DEFPOINTS
 62
     0
100
AcDbPoint
 10
21.76523762741971
 20
38.13647465124095
 30
0.0
  0
ENDBLK
  5
71E
330
712
100
AcDbEntity
  8
0
100
AcDbBlockEnd
  0
BLOCK
  5
72A
330
71F
100
AcDbEntity
  8
0
100
AcDbBlockBegin
  2
*D5
 70
     1
 10
0.0
 20
0.0
 30
0.0
  3
*D5
  1

  0
LINE
  5
B7B
330
71F
100
AcDbEntity
  8
0
 62
     0
370
    -2
100
AcDbLine
 10
42.5777376274197
 20
20.28757066320434
 30
0.0
 11
47.81383746715889
 21
20.28757066320434
 31
0.0
  0
LINE
  5
B7C
330
71F
100
AcDbEntity
  8
0
 62
     0
370
    -2
100
AcDbLine
 10
51.42145379761945
 20
4.912570663204334
 30
0.0
 11
45.56383746715889
 21
4.912570663204336
 31
0.0
  0
LINE
  5
B7D
330
71F
100
AcDbEntity
  8
0
 62
     0
370
    -2
100
AcDbLine
 10
46.6888374671589
 20
19.16257066320434
 30
0.0
 11
46.68883746715889
 21
14.3973993430823
 31
0.0
  0
LINE
  5
B7E
330
71F
100
AcDbEntity
  8
0
 62
     0
370
    -2
100
AcDbLine
 10
46.68883746715889
 20
6.037570663204335
 30
0.0
 11
46.68883746715889
 21
10.43672403612459
 31
0.0
  0
SOLID
  5
B7F
330
71F
100
AcDbEntity
  8
0
 62
     0
100
AcDbTrace
 10
46.5013374671589
 20
19.16257066320434
 30
0.0
 11
46.87633746715889
 21
19.16257066320434
 31
0.0
 12
46.6888374671589
 22
20.28757066320434
 32
0.0
 13
46.6888374671589
 23
20.28757066320434
 33
0.0
  0
SOLID
  5
B80
330
71F
100
AcDbEntity
  8
0
 62
     0
100
AcDbTrace
 10
46.50133746715889
 20
6.037570663204335
 30
0.0
 11
46.87633746715889
 21
6.037570663204335
 31
0.0
 12
46.68883746715889
 22
4.912570663204335
 32
0.0
 13
46.68883746715889
 23
4.912570663204335
 33
0.0
  0
MTEXT
  5
B81
330
71F
100
AcDbEntity
  8
0
 62
     0
100
AcDbMText
 10
46.68883746715889
 20
12.41706168960346
 30
0.0
 40
1.125
 41
0.0
 71
     5
 72
     1
  1
\A1;15{\H1.000000x;\S3/8;} [391]
  7
ARIAL
 73
     1
 44
1.0
1001
ACAD
1000
MTEXTBEGIN
1070
    73
1070
     1
1070
    44
1040
1.0
1070
    74
1070
     0
1000
MTEXTEND
  0
POINT
  5
B82
330
71F
100
AcDbEntity
  8
DEFPOINTS
 62
     0
100
AcDbPoint
 10
42.3902376274197
 20
20.28757066320434
 30
0.0
  0
POINT
  5
B83
330
71F
100
AcDbEntity
  8
DEFPOINTS
 62
     0
100
AcDbPoint
 10
51.60895379761945
 20
4.912570663204334
 30
0.0
  0
POINT
  5
B84
330
71F
100
AcDbEntity
  8
DEFPOINTS
 62
     0
100
AcDbPoint
 10
46.68883746715889
 20
4.912570663204335
 30
0.0
  0
ENDBLK
  5
72B
330
71F
100
AcDbEntity
  8
0
100
AcDbBlockEnd
  0
BLOCK
  5
8D5
330
8CA
100
AcDbEntity
  8
0
100
AcDbBlockBegin
  2
*D6
 70
     1
 10
0.0
 20
0.0
 30
0.0
  3
*D6
  1

  0
LINE
  5
BDE
330
8CA
100
AcDbEntity
  8
0
 62
     0
370
    -2
100
AcDbLine
 10
12.37845227997194
 20
70.92187900378696
 30
0.0
 11
12.37845227997194
 21
73.76870394233861
 31
0.0
  0
LINE
  5
BDF
330
8CA
100
AcDbEntity
  8
0
 62
     0
370
    -2
100
AcDbLine
 10
43.75423948255995
 20
56.55004503973553
 30
0.0
 11
43.75423948255995
 21
73.76870394233861
 31
0.0
  0
LINE
  5
BE0
330
8CA
100
AcDbEntity
  8
0
 62
     0
370
    -2
100
AcDbLine
 10
13.50345227997194
 20
72.64370394233861
 30
0.0
 11
24.59444956475844
 21
72.64370394233861
 31
0.0
  0
LINE
  5
BE1
330
8CA
100
AcDbEntity
  8
0
 62
     0
370
    -2
100
AcDbLine
 10
42.62923948255995
 20
72.64370394233861
 30
0.0
 11
31.53824219777345
 21
72.64370394233861
 31
0.0
  0
SOLID
  5
BE2
330
8CA
100
AcDbEntity
  8
0
 62
     0
100
AcDbTrace
 10
13.50345227997194
 20
72.83120394233861
 30
0.0
 11
13.50345227997194
 21
72.45620394233862
 31
0.0
 12
12.37845227997194
 22
72.64370394233861
 32
0.0
 13
12.37845227997194
 23
72.64370394233861
 33
0.0
  0
SOLID
  5
BE3
330
8CA
100
AcDbEntity
  8
0
 62
     0
100
AcDbTrace
 10
42.62923948255995
 20
72.83120394233861
 30
0.0
 11
42.62923948255995
 21
72.45620394233862
 31
0.0
 12
43.75423948255995
 22
72.64370394233861
 32
0.0
 13
43.75423948255995
 23
72.64370394233861
 33
0.0
  0
MTEXT
  5
BE4
330
8CA
100
AcDbEntity
  8
0
 62
     0
100
AcDbMText
 10
28.06634588126595
 20
72.64370394233861
 30
0.0
 40
1.125
 41
0.0
 71
     5
 72
     1
  1
\A1;28  [711]
  7
ARIAL
 73
     1
 44
1.0
1001
ACAD
1000
MTEXTBEGIN
1070
    73
1070
     1
1070
    44
1040
1.0
1070
    74
1070
     0
1000
MTEXTEND
  0
POINT
  5
BE5
330
8CA
100
AcDbEntity
  8
DEFPOINTS
 62
     0
100
AcDbPoint
 10
12.37845227997194
 20
70.73437900378696
 30
0.0
  0
POINT
  5
BE6
330
8CA
100
AcDbEntity
  8
DEFPOINTS
 62
     0
100
AcDbPoint
 10
43.75423948255995
 20
56.36254503973553
 30
0.0
  0
POINT
  5
BE7
330
8CA
100
AcDbEntity
  8
DEFPOINTS
 62
     0
100
AcDbPoint
 10
43.75423948255995
 20
72.64370394233861
 30
0.0
  0
ENDBLK
  5
8D6
330
8CA
100
AcDbEntity
  8
0
100
AcDbBlockEnd
  0
BLOCK
  5
8E2
330
8D7
100
AcDbEntity
  8
0
100
AcDbBlockBegin
  2
*D7
 70
     1
 10
0.0
 20
0.0
 30
0.0
  3
*D7
  1

  0
LINE
  5
922
330
8D7
100
AcDbEntity
  8
0
 62
     0
370
    -2
100
AcDbLine
 10
16.07583628005035
 20
66.74493451904679
 30
0.0
 11
-0.9048504261228695
 21
66.74493451904679
 31
0.0
  0
LINE
  5
923
330
8D7
100
AcDbEntity
  8
0
 62
     0
370
    -2
100
AcDbLine
 10
16.07583628005035
 20
45.97992489325223
 30
0.0
 11
-0.9048504261228739
 21
45.97992489325224
 31
0.0
  0
LINE
  5
924
330
8D7
100
AcDbEntity
  8
0
 62
     0
370
    -2
100
AcDbLine
 10
0.2201495738771304
 20
65.6199345190468
 30
0.0
 11
0.2201495738771288
 21
58.52154948248696
 31
0.0
  0
LINE
  5
925
330
8D7
100
AcDbEntity
  8
0
 62
     0
370
    -2
100
AcDbLine
 10
0.2201495738771263
 20
47.10492489325224
 30
0.0
 11
0.220149573877128
 21
54.58466339790305
 31
0.0
  0
SOLID
  5
926
330
8D7
100
AcDbEntity
  8
0
 62
     0
100
AcDbTrace
 10
0.0326495738771304
 20
65.6199345190468
 30
0.0
 11
0.4076495738771304
 21
65.6199345190468
 31
0.0
 12
0.2201495738771307
 22
66.74493451904679
 32
0.0
 13
0.2201495738771307
 23
66.74493451904679
 33
0.0
  0
SOLID
  5
927
330
8D7
100
AcDbEntity
  8
0
 62
     0
100
AcDbTrace
 10
0.0326495738771263
 20
47.10492489325224
 30
0.0
 11
0.4076495738771264
 21
47.10492489325224
 31
0.0
 12
0.2201495738771261
 22
45.97992489325224
 32
0.0
 13
0.2201495738771261
 23
45.97992489325224
 33
0.0
  0
MTEXT
  5
928
330
8D7
100
AcDbEntity
  8
0
 62
     0
100
AcDbMText
 10
0.2201495738771193
 20
56.553106440195
 30
0.0
 40
1.125
 41
0.0
 71
     5
 72
     1
  1
\A1;20{\H1.000000x;\S3/4;} [527]
  7
ARIAL
 73
     1
 44
1.0
1001
ACAD
1000
MTEXTBEGIN
1070
    73
1070
     1
1070
    44
1040
1.0
1070
    74
1070
     0
1000
MTEXTEND
  0
POINT
  5
929
330
8D7
100
AcDbEntity
  8
DEFPOINTS
 62
     0
100
AcDbPoint
 10
16.26333628005035
 20
66.74493451904679
 30
0.0
  0
POINT
  5
92A
330
8D7
100
AcDbEntity
  8
DEFPOINTS
 62
     0
100
AcDbPoint
 10
16.26333628005035
 20
45.97992489325223
 30
0.0
  0
POINT
  5
92B
330
8D7
100
AcDbEntity
  8
DEFPOINTS
 62
     0
100
AcDbPoint
 10
0.2201495738771261
 20
45.97992489325224
 30
0.0
  0
ENDBLK
  5
8E3
330
8D7
100
AcDbEntity
  8
0
100
AcDbBlockEnd
  0
BLOCK
  5
8EF
330
8E4
100
AcDbEntity
  8
0
100
AcDbBlockBegin
  2
*D8
 70
     1
 10
0.0
 20
0.0
 30
0.0
  3
*D8
  1

  0
LINE
  5
C4E
330
8E4
100
AcDbEntity
  8
0
 62
     0
370
    -2
100
AcDbLine
 10
25.13128243566684
 20
59.11254503973552
 30
0.0
 11
38.76498936507598
 21
59.11254503973552
 31
0.0
  0
LINE
  5
C4F
330
8E4
100
AcDbEntity
  8
0
 62
     0
370
    -2
100
AcDbLine
 10
25.13128243566684
 20
53.61254503973552
 30
0.0
 11
38.76498936507598
 21
53.61254503973552
 31
0.0
  0
LINE
  5
C50
330
8E4
100
AcDbEntity
  8
0
 62
     0
370
    -2
100
AcDbLine
 10
37.63998936507598
 20
60.23754503973552
 30
0.0
 11
37.63998936507598
 21
61.36254503973552
 31
0.0
  0
LINE
  5
C51
330
8E4
100
AcDbEntity
  8
0
 62
     0
370
    -2
100
AcDbLine
 10
37.63998936507598
 20
52.48754503973552
 30
0.0
 11
37.63998936507598
 21
51.36254503973552
 31
0.0
  0
SOLID
  5
C52
330
8E4
100
AcDbEntity
  8
0
 62
     0
100
AcDbTrace
 10
37.45248936507598
 20
60.23754503973552
 30
0.0
 11
37.82748936507598
 21
60.23754503973552
 31
0.0
 12
37.63998936507598
 22
59.11254503973552
 32
0.0
 13
37.63998936507598
 23
59.11254503973552
 33
0.0
  0
SOLID
  5
C53
330
8E4
100
AcDbEntity
  8
0
 62
     0
100
AcDbTrace
 10
37.45248936507598
 20
52.48754503973552
 30
0.0
 11
37.82748936507598
 21
52.48754503973552
 31
0.0
 12
37.63998936507598
 22
53.61254503973552
 32
0.0
 13
37.63998936507598
 23
53.61254503973552
 33
0.0
  0
MTEXT
  5
C54
330
8E4
100
AcDbEntity
  8
0
 62
     0
100
AcDbMText
 10
37.63998936507596
 20
56.36254503973552
 30
0.0
 40
1.125
 41
0.0
 71
     5
 72
     1
  1
\A1;5{\H1.000000x;\S1/2;} [140]
  7
ARIAL
 73
     1
 44
1.0
1001
ACAD
1000
MTEXTBEGIN
1070
    73
1070
     1
1070
    44
1040
1.0
1070
    74
1070
     0
1000
MTEXTEND
  0
POINT
  5
C55
330
8E4
100
AcDbEntity
  8
DEFPOINTS
 62
     0
100
AcDbPoint
 10
24.94378243566684
 20
59.11254503973552
 30
0.0
  0
POINT
  5
C56
330
8E4
100
AcDbEntity
  8
DEFPOINTS
 62
     0
100
AcDbPoint
 10
24.94378243566684
 20
53.61254503973552
 30
0.0
  0
POINT
  5
C57
330
8E4
100
AcDbEntity
  8
DEFPOINTS
 62
     0
100
AcDbPoint
 10
37.63998936507598
 20
53.61254503973552
 30
0.0
  0
ENDBLK
  5
8F0
330
8E4
100
AcDbEntity
  8
0
100
AcDbBlockEnd
  0
BLOCK
  5
909
330
8FE
100
AcDbEntity
  8
0
100
AcDbBlockBegin
  2
*D9
 70
     1
 10
0.0
 20
0.0
 30
0.0
  3
*D9
  1

  0
LINE
  5
940
330
8FE
100
AcDbEntity
  8
0
 62
     0
370
    -2
100
AcDbLine
 10
15.79533306231301
 20
56.10162780013093
 30
0.0
 11
6.789419777897217
 21
56.10162780013093
 31
0.0
  0
LINE
  5
941
330
8FE
100
AcDbEntity
  8
0
 62
     0
370
    -2
100
AcDbLine
 10
15.92377988221931
 20
50.35162780013093
 30
0.0
 11
6.789419777897216
 21
50.35162780013093
 31
0.0
  0
LINE
  5
942
330
8FE
100
AcDbEntity
  8
0
 62
     0
370
    -2
100
AcDbLine
 10
7.914419777897217
 20
57.22662780013092
 30
0.0
 11
7.914419777897218
 21
58.35162780013092
 31
0.0
  0
LINE
  5
943
330
8FE
100
AcDbEntity
  8
0
 62
     0
370
    -2
100
AcDbLine
 10
7.914419777897215
 20
49.22662780013093
 30
0.0
 11
7.914419777897215
 21
48.10162780013094
 31
0.0
  0
SOLID
  5
944
330
8FE
100
AcDbEntity
  8
0
 62
     0
100
AcDbTrace
 10
7.726919777897217
 20
57.22662780013092
 30
0.0
 11
8.101919777897217
 21
57.22662780013092
 31
0.0
 12
7.914419777897217
 22
56.10162780013093
 32
0.0
 13
7.914419777897217
 23
56.10162780013093
 33
0.0
  0
SOLID
  5
945
330
8FE
100
AcDbEntity
  8
0
 62
     0
100
AcDbTrace
 10
7.726919777897215
 20
49.22662780013093
 30
0.0
 11
8.101919777897215
 21
49.22662780013093
 31
0.0
 12
7.914419777897216
 22
50.35162780013093
 32
0.0
 13
7.914419777897216
 23
50.35162780013093
 33
0.0
  0
MTEXT
  5
946
330
8FE
100
AcDbEntity
  8
0
 62
     0
100
AcDbMText
 10
7.914419777897208
 20
53.48752814251921
 30
0.0
 40
1.125
 41
0.0
 71
     5
 72
     1
  1
\A1;5{\H1.000000x;\S3/4;} [146]
  7
ARIAL
 73
     1
 44
1.0
1001
ACAD
1000
MTEXTBEGIN
1070
    73
1070
     1
1070
    44
1040
1.0
1070
    74
1070
     0
1000
MTEXTEND
  0
POINT
  5
947
330
8FE
100
AcDbEntity
  8
DEFPOINTS
 62
     0
100
AcDbPoint
 10
15.98283306231301
 20
56.10162780013093
 30
0.0
  0
POINT
  5
948
330
8FE
100
AcDbEntity
  8
DEFPOINTS
 62
     0
100
AcDbPoint
 10
16.11127988221931
 20
50.35162780013092
 30
0.0
  0
POINT
  5
949
330
8FE
100
AcDbEntity
  8
DEFPOINTS
 62
     0
100
AcDbPoint
 10
7.914419777897216
 20
50.35162780013093
 30
0.0
  0
ENDBLK
  5
90A
330
8FE
100
AcDbEntity
  8
0
100
AcDbBlockEnd
  0
BLOCK
  5
916
330
90B
100
AcDbEntity
  8
0
100
AcDbBlockBegin
  2
*D10
 70
     1
 10
0.0
 20
0.0
 30
0.0
  3
*D10
  1

  0
LINE
  5
94A
330
90B
100
AcDbEntity
  8
0
 62
     0
370
    -2
100
AcDbLine
 10
16.83127988221931
 20
49.44412780013093
 30
0.0
 11
16.83127988221931
 21
42.02189954624756
 31
0.0
  0
LINE
  5
94B
330
90B
100
AcDbEntity
  8
0
 62
     0
370
    -2
100
AcDbLine
 10
12.37845227997194
 20
49.70502814251921
 30
0.0
 11
12.37845227997194
 21
42.02189954624756
 31
0.0
  0
LINE
  5
94C
330
90B
100
AcDbEntity
  8
0
 62
     0
370
    -2
100
AcDbLine
 10
15.70627988221932
 20
43.14689954624756
 30
0.0
 11
13.50345227997194
 21
43.14689954624756
 31
0.0
  0
LINE
  5
94D
330
90B
100
AcDbEntity
  8
0
 62
     0
370
    -2
100
AcDbLine
 10
12.37845227997194
 20
43.14689954624756
 30
0.0
 11
11.25345227997194
 21
43.14689954624756
 31
0.0
  0
SOLID
  5
94E
330
90B
100
AcDbEntity
  8
0
 62
     0
100
AcDbTrace
 10
15.70627988221932
 20
43.33439954624757
 30
0.0
 11
15.70627988221932
 21
42.95939954624756
 31
0.0
 12
16.83127988221931
 22
43.14689954624756
 32
0.0
 13
16.83127988221931
 23
43.14689954624756
 33
0.0
  0
SOLID
  5
94F
330
90B
100
AcDbEntity
  8
0
 62
     0
100
AcDbTrace
 10
13.50345227997194
 20
43.33439954624757
 30
0.0
 11
13.50345227997194
 21
42.95939954624756
 31
0.0
 12
12.37845227997194
 22
43.14689954624756
 32
0.0
 13
12.37845227997194
 23
43.14689954624756
 33
0.0
  0
MTEXT
  5
950
330
90B
100
AcDbEntity
  8
0
 62
     0
100
AcDbMText
 10
7.633832566465802
 20
43.14689954624756
 30
0.0
 40
1.125
 41
0.0
 71
     5
 72
     1
  1
\A1;4{\H1.000000x;\S7/16;} [113]
  7
ARIAL
 73
     1
 44
1.0
1001
ACAD
1000
MTEXTBEGIN
1070
    73
1070
     1
1070
    44
1040
1.0
1070
    74
1070
     0
1000
MTEXTEND
  0
POINT
  5
951
330
90B
100
AcDbEntity
  8
DEFPOINTS
 62
     0
100
AcDbPoint
 10
16.83127988221931
 20
49.63162780013092
 30
0.0
  0
POINT
  5
952
330
90B
100
AcDbEntity
  8
DEFPOINTS
 62
     0
100
AcDbPoint
 10
12.37845227997194
 20
49.89252814251921
 30
0.0
  0
POINT
  5
953
330
90B
100
AcDbEntity
  8
DEFPOINTS
 62
     0
100
AcDbPoint
 10
12.37845227997194
 20
43.14689954624756
 30
0.0
  0
ENDBLK
  5
917
330
90B
100
AcDbEntity
  8
0
100
AcDbBlockEnd
  0
BLOCK
  5
973
330
968
100
AcDbEntity
  8
0
100
AcDbBlockBegin
  2
*D11
 70
     1
 10
0.0
 20
0.0
 30
0.0
  3
*D11
  1

  0
LINE
  5
975
330
968
100
AcDbEntity
  8
0
 62
     0
370
    -2
100
AcDbLine
 10
7.199122352973804
 20
14.91257066320433
 30
0.0
 11
6.261622352973804
 21
14.91257066320433
 31
0.0
  0
LINE
  5
976
330
968
100
AcDbEntity
  8
0
 62
     0
370
    -2
100
AcDbLine
 10
12.07773762741971
 20
4.912570663204334
 30
0.0
 11
6.261622352973802
 21
4.912570663204335
 31
0.0
  0
LINE
  5
977
330
968
100
AcDbEntity
  8
0
 62
     0
370
    -2
100
AcDbLine
 10
7.386622352973803
 20
13.78757066320434
 30
0.0
 11
7.386622352973803
 21
11.12103757998469
 31
0.0
  0
LINE
  5
978
330
968
100
AcDbEntity
  8
0
 62
     0
370
    -2
100
AcDbLine
 10
7.386622352973803
 20
6.037570663204335
 30
0.0
 11
7.386622352973803
 21
8.704103746423982
 31
0.0
  0
SOLID
  5
979
330
968
100
AcDbEntity
  8
0
 62
     0
100
AcDbTrace
 10
7.199122352973803
 20
13.78757066320434
 30
0.0
 11
7.574122352973803
 21
13.78757066320434
 31
0.0
 12
7.386622352973804
 22
14.91257066320433
 32
0.0
 13
7.386622352973804
 23
14.91257066320433
 33
0.0
  0
SOLID
  5
97A
330
968
100
AcDbEntity
  8
0
 62
     0
100
AcDbTrace
 10
7.199122352973803
 20
6.037570663204335
 30
0.0
 11
7.574122352973803
 21
6.037570663204335
 31
0.0
 12
7.386622352973802
 22
4.912570663204335
 32
0.0
 13
7.386622352973802
 23
4.912570663204335
 33
0.0
  0
MTEXT
  5
97B
330
968
100
AcDbEntity
  8
0
 62
     0
100
AcDbMText
 10
7.386622352973802
 20
9.912570663204338
 30
0.0
 40
1.125
 41
0.0
 71
     5
 72
     1
  1
\A1;10 [254]
  7
ARIAL
 73
     1
 44
1.0
1001
ACAD
1000
MTEXTBEGIN
1070
    73
1070
     1
1070
    44
1040
1.0
1070
    74
1070
     0
1000
MTEXTEND
  0
POINT
  5
97C
330
968
100
AcDbEntity
  8
DEFPOINTS
 62
     0
100
AcDbPoint
 10
7.386622352973804
 20
14.91257066320433
 30
0.0
  0
POINT
  5
97D
330
968
100
AcDbEntity
  8
DEFPOINTS
 62
     0
100
AcDbPoint
 10
12.26523762741971
 20
4.912570663204334
 30
0.0
  0
POINT
  5
97E
330
968
100
AcDbEntity
  8
DEFPOINTS
 62
     0
100
AcDbPoint
 10
7.386622352973802
 20
4.912570663204335
 30
0.0
  0
ENDBLK
  5
974
330
968
100
AcDbEntity
  8
0
100
AcDbBlockEnd
  0
BLOCK
  5
BF4
330
BE9
100
AcDbEntity
  8
0
100
AcDbBlockBegin
  2
*D14
 70
     1
 10
0.0
 20
0.0
 30
0.0
  3
*D14
  1

  0
LINE
  5
BEA
330
BE9
100
AcDbEntity
  8
0
 62
     0
370
    -2
100
AcDbLine
 10
33.74100379895089
 20
63.73768052266551
 30
0.0
 11
49.74568903436744
 21
63.7376805226655
 31
0.0
  0
LINE
  5
BEB
330
BE9
100
AcDbEntity
  8
0
 62
     0
370
    -2
100
AcDbLine
 10
33.74100379895012
 20
48.98740955680556
 30
0.0
 11
49.74568903436744
 21
48.98740955680555
 31
0.0
  0
LINE
  5
BEC
330
BE9
100
AcDbEntity
  8
0
 62
     0
370
    -2
100
AcDbLine
 10
48.62068903436744
 20
62.6126805226655
 30
0.0
 11
48.62068903436744
 21
58.33098808202747
 31
0.0
  0
LINE
  5
BED
330
BE9
100
AcDbEntity
  8
0
 62
     0
370
    -2
100
AcDbLine
 10
48.62068903436744
 20
50.11240955680555
 30
0.0
 11
48.62068903436744
 21
54.39410199744357
 31
0.0
  0
SOLID
  5
BEE
330
BE9
100
AcDbEntity
  8
0
 62
     0
100
AcDbTrace
 10
48.43318903436744
 20
62.6126805226655
 30
0.0
 11
48.80818903436744
 21
62.6126805226655
 31
0.0
 12
48.62068903436744
 22
63.7376805226655
 32
0.0
 13
48.62068903436744
 23
63.7376805226655
 33
0.0
  0
SOLID
  5
BEF
330
BE9
100
AcDbEntity
  8
0
 62
     0
100
AcDbTrace
 10
48.43318903436744
 20
50.11240955680555
 30
0.0
 11
48.80818903436744
 21
50.11240955680555
 31
0.0
 12
48.62068903436744
 22
48.98740955680555
 32
0.0
 13
48.62068903436744
 23
48.98740955680555
 33
0.0
  0
MTEXT
  5
BF0
330
BE9
100
AcDbEntity
  8
0
 62
     0
100
AcDbMText
 10
48.62068903436743
 20
56.36254503973553
 30
0.0
 40
1.125
 41
0.0
 71
     5
 72
     1
  1
\A1;14{\H1.000000x;\S3/4;} [375]
  7
ARIAL
 73
     1
 44
1.0
1001
ACAD
1000
MTEXTBEGIN
1070
    73
1070
     1
1070
    44
1040
1.0
1070
    74
1070
     0
1000
MTEXTEND
  0
POINT
  5
BF1
330
BE9
100
AcDbEntity
  8
DEFPOINTS
 62
     0
100
AcDbPoint
 10
33.55350379895089
 20
63.73768052266551
 30
0.0
  0
POINT
  5
BF2
330
BE9
100
AcDbEntity
  8
DEFPOINTS
 62
     0
100
AcDbPoint
 10
33.55350379895012
 20
48.98740955680556
 30
0.0
  0
POINT
  5
BF3
330
BE9
100
AcDbEntity
  8
DEFPOINTS
 62
     0
100
AcDbPoint
 10
48.62068903436744
 20
48.98740955680555
 30
0.0
  0
ENDBLK
  5
BF5
330
BE9
100
AcDbEntity
  8
0
100
AcDbBlockEnd
  0
ENDSEC
  0
SECTION
  2
ENTITIES
  0
LINE
  5
655
330
2
100
AcDbEntity
  8
0
100
AcDbLine
 10
24.82870932335557
 20
10.9228564016245
 30
0.0
 11
22.45496393093114
 21
14.9590391983199
 31
0.0
  0
LINE
  5
656
330
2
100
AcDbEntity
  8
0
100
AcDbLine
 10
25.1942627756285
 20
7.81592014132304
 30
0.0
 11
20.37257800206572
 21
12.49985616588078
 31
0.0
  0
DIMENSION
  5
657
330
2
100
AcDbEntity
  8
0
100
AcDbDimension
  2
*D0
 10
12.26523762741971
 20
-0.7642002043833856
 30
0.0
 11
18.2652376274197
 21
-0.7642002043833856
 31
0.0
 70
   160
 71
     5
 42
12.0
  3
STANDARD
100
AcDbAlignedDimension
 13
24.26523762741971
 23
3.286617304386396
 33
0.0
 14
12.26523762741971
 24
4.912570663204334
 34
0.0
100
AcDbRotatedDimension
1001
ACAD
1000
DSTYLE
1002
{
1070
   270
1070
     5
1070
   270
1070
     5
1070
   270
1070
     5
1070
   270
1070
     5
1070
    40
1040
1.5
1070
    41
1040
0.75
1070
    42
1040
0.125
1070
    43
1040
0.75
1070
    44
1040
0.75
1070
   140
1040
0.75
1070
   147
1040
0.325
1070
   170
1070
     1
1070
   171
1070
     0
1070
   274
1070
     0
1070
   277
1070
     5
1070
   340
1005
25
1002
}
  0
ARC
  5
658
330
2
100
AcDbEntity
  8
0
100
AcDbCircle
 10
21.08967131723252
 20
14.10540586645869
 30
0.0
 40
3.520381324440645
100
AcDbArc
 50
11.6645808753956
 51
222.145292171696
  0
HATCH
  5
659
330
2
100
AcDbEntity
  8
0
100
AcDbHatch
 10
0.0
 20
0.0
 30
0.0
210
0.0
220
0.0
230
1.0
  2
AR-CONC
 70
     0
 71
     1
 91
        1
 92
        7
 72
     0
 73
     1
 93
        4
 10
51.60895379761945
 20
2.42509710833859
 10
51.60895379761945
 20
4.912570663204334
 10
6.210775079040899
 20
4.912570663204334
 10
6.210775079040899
 20
2.42509710833859
 97
        4
330
66B
330
65E
330
6A7
330
65F
 75
     0
 76
     1
 52
0.0
 41
0.5
 77
     0
 78
    13
 53
50.0
 43
3.685782488739675
 44
-6.10634212469192
 45
3.586300913003767
 46
-0.3137606749129755
 79
     2
 49
0.375
 49
-4.125
 53
355.0
 43
3.685782488739675
 44
-6.10634212469192
 45
-0.6937566680650001
 46
3.760960668500059
 79
     2
 49
0.3
 49
-3.299999999999999
 53
100.4514
 43
3.984640888739676
 44
-6.132488824691918
 45
2.892546908570107
 46
3.447197710304767
 79
     2
 49
0.3187009499999998
 49
-3.505710559999998
 53
46.1842
 43
3.685782488739675
 44
-5.10634212469192
 45
5.336205243128222
 46
-0.8275950716450907
 79
     2
 49
0.5625
 49
-6.1875
 53
96.63559999999998
 43
4.130466213739675
 44
-5.175308659691921
 45
4.673313527743516
 46
4.870589354502208
 79
     2
 49
0.4780514399999997
 49
-5.258564999999995
 53
351.1842000000001
 43
3.685782488739675
 44
-5.10634212469192
 45
4.673309725668135
 46
4.870593004626623
 79
     2
 49
0.45
 49
-4.95
 53
21.0
 43
4.185782488739675
 44
-5.35634212469192
 45
2.984535260592308
 46
-2.013094453326694
 79
     2
 49
0.375
 49
-4.125
 53
326.0
 43
4.185782488739675
 44
-5.35634212469192
 45
1.216576659607908
 46
3.625750225234265
 79
     2
 49
0.3
 49
-3.299999999999999
 53
71.45140000000001
 43
4.434493653739675
 44
-5.524100154691922
 45
4.201113142907449
 46
1.612652483549761
 79
     2
 49
0.31870095
 49
-3.505710559999999
 53
37.5
 43
3.685782488739675
 44
-6.10634212469192
 45
0.0607992765864534
 46
1.664469269156557
 79
     6
 49
0.0
 49
-3.259999999999999
 49
0.0
 49
-3.35
 49
0.0
 49
-3.3125
 53
7.499999999999999
 43
3.685782488739675
 44
-6.10634212469192
 45
1.315347687210743
 46
1.972058559411801
 79
     6
 49
0.0
 49
-1.909999999999999
 49
0.0
 49
-3.185
 49
0.0
 49
-1.262499999999999
 53
327.5
 43
2.570782488739675
 44
-6.10634212469192
 45
2.669112180862045
 46
-0.112774358671899
 79
     6
 49
0.0
 49
-1.25
 49
0.0
 49
-3.9
 49
0.0
 49
-5.174999999999999
 53
317.5
 43
2.070782488739675
 44
-6.10634212469192
 45
2.915930846711931
 46
0.5005249116615885
 79
     6
 49
0.0
 49
-1.625
 49
0.0
 49
-2.589999999999999
 49
0.0
 49
-3.674999999999999
 47
0.1318102576454921
 98
        1
 10
9.378788458955114
 20
3.398636341505792
  0
LINE
  5
65A
330
2
100
AcDbEntity
  8
AM_VIS
100
AcDbLine
 10
17.62462821285672
 20
5.47726428270861
 30
0.0
 11
28.56937456201342
 21
5.477264282708617
 31
0.0
  0
ARC
  5
65B
330
2
100
AcDbEntity
  8
AM_VIS
100
AcDbCircle
 10
30.07209385727234
 20
18.87169024524808
 30
0.0
 40
5.573854361342728
100
AcDbArc
 50
179.787514523127
 51
256.7733481954919
  0
LINE
  5
65C
330
2
100
AcDbEntity
  8
AM_VIS
100
AcDbLine
 10
43.1402376274197
 20
18.89236123353379
 30
0.0
 11
23.83508350182754
 21
18.89236123353381
 31
0.0
  0
LINE
  5
65D
330
2
100
AcDbEntity
  8
AM_VIS
100
AcDbLine
 10
42.3902376274197
 20
20.28757066320434
 30
0.0
 11
21.79177162776202
 21
20.28757066320434
 31
0.0
  0
LINE
  5
65E
102
{ACAD_REACTORS
330
659
102
}
330
2
100
AcDbEntity
  8
AM_VIS
100
AcDbLine
 10
51.60895379761945
 20
2.42509710833859
 30
0.0
 11
6.210775079040899
 21
2.42509710833859
 31
0.0
  0
LINE
  5
65F
102
{ACAD_REACTORS
330
659
330
9F6
102
}
330
2
100
AcDbEntity
  8
AM_VIS
100
AcDbLine
 10
51.60895379761945
 20
4.912570663204334
 30
0.0
 11
6.210775079040899
 21
4.912570663204334
 31
0.0
  0
DIMENSION
  5
663
330
2
100
AcDbEntity
  8
0
100
AcDbDimension
  2
*D1
 10
27.42425951607248
 20
20.28757066320433
 30
0.0
 11
27.42425951607248
 21
27.78757066320434
 31
0.0
 70
    32
 71
     5
 42
14.99999999999999
  3
STANDARD
100
AcDbAlignedDimension
 13
21.76523762741971
 23
35.28757066320432
 33
0.0
 14
21.79177162776202
 24
20.28757066320434
 34
0.0
 50
90.0
100
AcDbRotatedDimension
1001
ACAD
1000
DSTYLE
1002
{
1070
   270
1070
     5
1070
    40
1040
1.5
1070
    41
1040
0.75
1070
    42
1040
0.125
1070
    43
1040
0.75
1070
    44
1040
0.75
1070
   140
1040
0.75
1070
   147
1040
0.325
1070
   170
1070
     1
1070
   171
1070
     0
1070
   274
1070
     0
1070
   277
1070
     5
1070
   340
1005
25
1002
}
  0
LINE
  5
665
102
{ACAD_REACTORS
330
9F6
102
}
330
2
100
AcDbEntity
  8
0
100
AcDbLine
 10
12.2652376274197
 20
39.48370650498279
 30
0.0
 11
12.26523762741971
 21
4.912570663204334
 31
0.0
  0
LINE
  5
666
102
{ACAD_REACTORS
330
9F6
102
}
330
2
100
AcDbEntity
  8
0
100
AcDbLine
 10
10.84250282563874
 20
39.48370650498279
 30
0.0
 11
10.84250282563874
 21
4.912570663204334
 31
0.0
  0
DIMENSION
  5
667
330
2
100
AcDbEntity
  8
0
100
AcDbDimension
  2
*D2
 10
0.2201495738771219
 20
4.91257066320435
 30
0.0
 11
0.220149573877122
 21
19.1654354485875
 31
0.0
 70
   160
 71
     5
 42
30.37499999999997
  3
STANDARD
100
AcDbAlignedDimension
 13
13.26523762741971
 23
35.28757066320432
 33
0.0
 14
6.210775079040899
 24
4.912570663204348
 34
0.0
 50
90.0
100
AcDbRotatedDimension
1001
ACAD
1000
DSTYLE
1002
{
1070
   270
1070
     5
1070
   270
1070
     5
1070
   270
1070
     5
1070
   270
1070
     5
1070
    40
1040
1.5
1070
    41
1040
0.75
1070
    42
1040
0.125
1070
    43
1040
0.75
1070
    44
1040
0.75
1070
   140
1040
0.75
1070
   147
1040
0.325
1070
   170
1070
     1
1070
   171
1070
     0
1070
   274
1070
     0
1070
   277
1070
     5
1070
   340
1005
25
1002
}
  0
LINE
  5
668
330
2
100
AcDbEntity
  8
0
100
AcDbLine
 10
14.81857117342163
 20
19.43573832615403
 30
0.0
 11
17.7818511296664
 21
12.90066096557698
 31
0.0
  0
LINE
  5
669
330
2
100
AcDbEntity
  8
0
100
AcDbLine
 10
18.48153432398742
 20
16.46987326820838
 30
0.0
 11
17.02679217297531
 21
19.30266062793804
 31
0.0
  0
LINE
  5
66A
330
2
100
AcDbEntity
  8
0
100
AcDbLine
 10
18.6388917102894
 20
16.63261064400684
 30
0.0
 11
17.34945037429013
 21
19.2832157396093
 31
0.0
  0
LINE
  5
66B
102
{ACAD_REACTORS
330
659
102
}
330
2
100
AcDbEntity
  8
0
100
AcDbLine
 10
6.210775079040899
 20
4.912570663204334
 30
0.0
 11
6.210775079040899
 21
2.42509710833859
 31
0.0
  0
LINE
  5
66C
330
2
100
AcDbEntity
  8
0
100
AcDbLine
 10
23.02794445010627
 20
7.112513633328859
 30
0.0
 11
18.3462779393604
 21
11.89930581348786
 31
0.0
  0
ARC
  5
66D
330
2
100
AcDbEntity
  8
0
100
AcDbCircle
 10
21.57231758498038
 20
13.59519364608884
 30
0.0
 40
1.624542785635603
100
AcDbArc
 50
57.09007718361365
 51
222.395434332942
  0
LINE
  5
66E
330
2
100
AcDbEntity
  8
0
100
AcDbLine
 10
17.72838850058819
 20
5.477264282708617
 30
0.0
 11
19.57674620293147
 21
10.64120768785749
 31
0.0
  0
LINE
  5
66F
330
2
100
AcDbEntity
  8
0
100
AcDbLine
 10
17.62462821285672
 20
5.47726428270861
 30
0.0
 11
19.37561621447961
 21
10.84685400070508
 31
0.0
  0
LINE
  5
670
330
2
100
AcDbEntity
  8
0
100
AcDbLine
 10
17.62462821285672
 20
5.47726428270861
 30
0.0
 11
17.55243492952532
 21
4.912570663204334
 31
0.0
  0
LINE
  5
671
330
2
100
AcDbEntity
  8
0
100
AcDbLine
 10
23.18656191851605
 20
5.477264282708617
 30
0.0
 11
23.18656191851605
 21
6.747194639673928
 31
0.0
  0
ARC
  5
672
330
2
100
AcDbEntity
  8
0
100
AcDbCircle
 10
22.68656191851605
 20
6.747194639673928
 30
0.0
 40
0.5
100
AcDbArc
 50
0.0
 51
46.93990547401483
  0
DIMENSION
  5
674
330
2
100
AcDbEntity
  8
0
100
AcDbDimension
  2
*D3
 10
12.26523762741971
 20
38.14423025882725
 30
0.0
 11
7.6395640257826
 21
38.14423025882725
 31
0.0
 70
    32
 71
     5
 42
0.5
  3
STANDARD
100
AcDbAlignedDimension
 13
12.76523762741971
 23
34.78757066320433
 33
0.0
 14
12.26523762741971
 24
35.54956648914066
 34
0.0
100
AcDbRotatedDimension
1001
ACAD
1000
DSTYLE
1002
{
1070
    40
1040
1.5
1070
    41
1040
0.75
1070
    42
1040
0.125
1070
    43
1040
0.75
1070
    44
1040
0.75
1070
   140
1040
0.75
1070
   147
1040
0.325
1070
   170
1070
     1
1070
   171
1070
     0
1070
   274
1070
     0
1070
   277
1070
     5
1070
   340
1005
25
1002
}
  0
LINE
  5
67A
330
2
100
AcDbEntity
  8
AM_VIS
100
AcDbLine
 10
20.9812341130162
 20
20.74131111772127
 30
0.0
 11
13.01523762741971
 21
20.74131111772129
 31
0.0
  0
LINE
  5
67B
330
2
100
AcDbEntity
  8
AM_VIS
100
AcDbLine
 10
21.76523762741971
 20
33.99069643640571
 30
0.0
 11
12.76523762741971
 21
33.9906964364057
 31
0.0
  0
LINE
  5
67C
330
2
100
AcDbEntity
  8
0
100
AcDbLine
 10
21.26523762741971
 20
35.28757066320432
 30
0.0
 11
13.26523762741971
 21
35.28757066320434
 31
0.0
  0
DIMENSION
  5
67D
330
2
100
AcDbEntity
  8
0
100
AcDbDimension
  2
*D4
 10
21.76523762741971
 20
38.13647465124095
 30
0.0
 11
17.26523762741971
 21
38.13647465124095
 31
0.0
 70
   160
 71
     5
 42
9.000000000000001
  3
STANDARD
100
AcDbAlignedDimension
 13
12.76523762741971
 23
35.28757066320432
 33
0.0
 14
21.76523762741971
 24
34.78757066320432
 34
0.0
100
AcDbRotatedDimension
1001
ACAD
1000
DSTYLE
1002
{
1070
   270
1070
     5
1070
    40
1040
1.5
1070
    41
1040
0.75
1070
    42
1040
0.125
1070
    43
1040
0.75
1070
    44
1040
0.75
1070
   140
1040
0.75
1070
   147
1040
0.325
1070
   170
1070
     1
1070
   171
1070
     0
1070
   274
1070
     0
1070
   277
1070
     5
1070
   340
1005
25
1002
}
  0
LINE
  5
67E
330
2
100
AcDbEntity
  8
0
100
AcDbLine
 10
14.81857117342163
 20
19.43573832615403
 30
0.0
 11
23.83508350182754
 21
18.89236123353381
 31
0.0
  0
LINE
  5
67F
330
2
100
AcDbEntity
  8
0
100
AcDbLine
 10
21.4812341130162
 20
20.58134746727447
 30
0.0
 11
14.81857117342163
 21
20.58134746727447
 31
0.0
  0
ARC
  5
680
330
2
100
AcDbEntity
  8
0
100
AcDbCircle
 10
13.26523762741971
 20
34.78757066320433
 30
0.0
 40
0.5
100
AcDbArc
 50
90.0
 51
180.0
  0
LINE
  5
681
330
2
100
AcDbEntity
  8
0
100
AcDbLine
 10
12.76523762741971
 20
34.78757066320433
 30
0.0
 11
12.76523762741971
 21
20.99131111772129
 31
0.0
  0
ARC
  5
682
330
2
100
AcDbEntity
  8
0
100
AcDbCircle
 10
13.01523762741971
 20
20.99131111772129
 30
0.0
 40
0.25
100
AcDbArc
 50
180.0
 51
269.9999999999999
  0
LINE
  5
683
330
2
100
AcDbEntity
  8
0
100
AcDbLine
 10
14.81857117342163
 20
19.43573832615403
 30
0.0
 11
14.81857117342163
 21
20.58134746727446
 31
0.0
  0
LINE
  5
684
102
{ACAD_REACTORS
330
9F6
102
}
330
2
100
AcDbEntity
  8
0
100
AcDbLine
 10
12.26523762741971
 20
39.48370650498279
 30
0.0
 11
10.84250282563874
 21
39.48370650498279
 31
0.0
  0
ARC
  5
688
330
2
100
AcDbEntity
  8
0
100
AcDbCircle
 10
21.26523762741971
 20
34.78757066320432
 30
0.0
 40
0.5
100
AcDbArc
 50
0.0
 51
90.0
  0
LINE
  5
68A
330
2
100
AcDbEntity
  8
0
100
AcDbLine
 10
21.76523762741971
 20
33.99069643640571
 30
0.0
 11
21.23100203341585
 21
20.98054144088147
 31
0.0
  0
ARC
  5
68B
330
2
100
AcDbEntity
  8
0
100
AcDbCircle
 10
20.9812341130162
 20
20.99131111772127
 30
0.0
 40
0.25
100
AcDbArc
 50
269.9999999999998
 51
357.5310078305248
  0
LINE
  5
68C
330
2
100
AcDbEntity
  8
0
100
AcDbLine
 10
21.79177162776202
 20
20.28757066320434
 30
0.0
 11
21.4812341130162
 21
20.58134746727447
 31
0.0
  0
LINE
  5
68D
330
2
100
AcDbEntity
  8
0
100
AcDbLine
 10
21.76523762741971
 20
33.99069643640571
 30
0.0
 11
21.76523762741971
 21
34.78757066320432
 31
0.0
  0
DIMENSION
  5
698
330
2
100
AcDbEntity
  8
0
100
AcDbDimension
  2
*D5
 10
46.68883746715889
 20
4.912570663204335
 30
0.0
 11
46.68883746715889
 21
12.41706168960346
 31
0.0
 70
   160
 71
     5
 42
15.375
  3
STANDARD
100
AcDbAlignedDimension
 13
42.3902376274197
 23
20.28757066320434
 33
0.0
 14
51.60895379761945
 24
4.912570663204334
 34
0.0
 50
90.0
100
AcDbRotatedDimension
1001
ACAD
1000
DSTYLE
1002
{
1070
   270
1070
     5
1070
   270
1070
     5
1070
   270
1070
     5
1070
   270
1070
     5
1070
    40
1040
1.5
1070
    41
1040
0.75
1070
    42
1040
0.125
1070
    43
1040
0.75
1070
    44
1040
0.75
1070
   140
1040
0.75
1070
   147
1040
0.325
1070
   170
1070
     1
1070
   171
1070
     0
1070
   274
1070
     0
1070
   277
1070
     5
1070
   340
1005
25
1002
}
  0
ARC
  5
699
330
2
100
AcDbEntity
  8
AM_VIS
100
AcDbCircle
 10
32.34719734758547
 20
25.70552608262261
 30
0.0
 40
12.763578406661
100
AcDbArc
 50
253.8490903329096
 51
327.7376098831183
  0
LINE
  5
69A
330
2
100
AcDbEntity
  8
0
100
AcDbLine
 10
26.41206272265013
 20
12.31971091985247
 30
0.0
 11
29.82890884708299
 21
12.31971091985247
 31
0.0
  0
LINE
  5
69B
330
2
100
AcDbEntity
  8
0
100
AcDbLine
 10
29.78704319011106
 20
10.68255565392042
 30
0.0
 11
25.25597539778337
 21
10.68255565392042
 31
0.0
  0
LINE
  5
69C
330
2
100
AcDbEntity
  8
0
100
AcDbLine
 10
25.46009410709876
 20
10.68255565392042
 30
0.0
 11
25.34586941025536
 21
7.668644694909737
 31
0.0
  0
LINE
  5
69D
330
2
100
AcDbEntity
  8
0
100
AcDbLine
 10
25.35216004517901
 20
10.68255565392042
 30
0.0
 11
25.27245859478355
 21
7.739958266685711
 31
0.0
  0
LINE
  5
69E
330
2
100
AcDbEntity
  8
0
  6
CENTER
100
AcDbLine
 10
24.26523762741971
 20
7.511861381042677
 30
0.0
 11
24.26523762741971
 21
3.286617304386396
 31
0.0
  0
LINE
  5
69F
330
2
100
AcDbEntity
  8
0
100
AcDbLine
 10
25.34586941025536
 20
5.457347971251166
 30
0.0
 11
25.34586941025536
 21
7.457280959185922
 31
0.0
  0
ARC
  5
6A0
330
2
100
AcDbEntity
  8
0
100
AcDbCircle
 10
24.84586941025536
 20
7.457280959185922
 30
0.0
 40
0.5
100
AcDbArc
 50
0.0
 51
45.83023189386014
  0
ARC
  5
6A1
330
2
100
AcDbEntity
  8
0
100
AcDbCircle
 10
26.41206272265013
 20
12.81971091985247
 30
0.0
 40
0.5
100
AcDbArc
 50
206.2326668465959
 51
270.0
  0
LINE
  5
6A2
330
2
100
AcDbEntity
  8
0
100
AcDbLine
 10
24.53734966541177
 20
14.81716332301711
 30
0.0
 11
25.96355947168574
 21
12.59870224609876
 31
0.0
  0
ARC
  5
6A3
330
2
100
AcDbEntity
  8
0
100
AcDbCircle
 10
25.25597539778337
 20
11.18255565392042
 30
0.0
 40
0.5
100
AcDbArc
 50
211.2919130192782
 51
270.0
  0
LINE
  5
6A4
330
2
100
AcDbEntity
  8
0
100
AcDbLine
 10
29.85112303180461
 20
13.18839595015684
 30
0.0
 11
29.64675805926243
 21
6.821709800484853
 31
0.0
  0
ARC
  5
6A5
330
2
100
AcDbEntity
  8
0
100
AcDbCircle
 10
27.26851647846189
 20
7.623626830341592
 30
0.0
 40
2.509801573715117
100
AcDbArc
 50
301.219033305537
 51
341.366456798987
  0
LINE
  5
6A6
330
2
100
AcDbEntity
  8
AM_VIS
100
AcDbLine
 10
38.64023762741971
 20
4.912570663204334
 30
0.0
 11
37.13892614427461
 21
13.87555275712592
 31
0.0
  0
LINE
  5
6A7
102
{ACAD_REACTORS
330
659
102
}
330
2
100
AcDbEntity
  8
0
100
AcDbLine
 10
51.60895379761945
 20
4.912570663204334
 30
0.0
 11
51.60895379761945
 21
2.42509710833859
 31
0.0
  0
LINE
  5
897
330
2
100
AcDbEntity
  8
0
100
AcDbLine
 10
22.37845227997194
 20
51.43510463871165
 30
0.0
 11
26.01404936961541
 21
51.25206715781811
 31
0.0
  0
LINE
  5
898
330
2
100
AcDbEntity
  8
0
100
AcDbLine
 10
22.37845227997194
 20
61.28995164632677
 30
0.0
 11
26.01393396803639
 21
61.47298331722161
 31
0.0
  0
DIMENSION
  5
899
330
2
100
AcDbEntity
  8
0
100
AcDbDimension
  2
*D6
 10
43.75423948255995
 20
72.64370394233861
 30
0.0
 11
28.06634588126595
 21
72.64370394233861
 31
0.0
 70
   160
  1
28  [711]
 71
     5
 42
31.37578720258801
  3
STANDARD
100
AcDbAlignedDimension
 13
12.37845227997194
 23
70.73437900378696
 33
0.0
 14
43.75423948255995
 24
56.36254503973553
 34
0.0
100
AcDbRotatedDimension
1001
ACAD
1000
DSTYLE
1002
{
1070
   270
1070
     5
1070
   270
1070
     5
1070
   270
1070
     5
1070
    40
1040
1.5
1070
    41
1040
0.75
1070
    42
1040
0.125
1070
    43
1040
0.75
1070
    44
1040
0.75
1070
   140
1040
0.75
1070
   147
1040
0.325
1070
   170
1070
     1
1070
   171
1070
     0
1070
   274
1070
     0
1070
   277
1070
     5
1070
   340
1005
25
1002
}
  0
LINE
  5
89A
102
{ACAD_REACTORS
330
9F6
102
}
330
2
100
AcDbEntity
  8
0
100
AcDbLine
 10
10.95571747819097
 20
70.73437900378694
 30
0.0
 11
10.95571747819097
 21
45.22454705862553
 31
0.0
  0
LINE
  5
89B
102
{ACAD_REACTORS
330
9F6
102
}
330
2
100
AcDbEntity
  8
0
100
AcDbLine
 10
12.37845227997194
 20
70.73437900378696
 30
0.0
 11
12.37845227997194
 21
45.22454705862553
 31
0.0
  0
DIMENSION
  5
89C
330
2
100
AcDbEntity
  8
0
100
AcDbDimension
  2
*D7
 10
0.2201495738771261
 20
45.97992489325224
 30
0.0
 11
0.2201495738771193
 21
56.553106440195
 31
0.0
 70
   160
 71
     5
 42
20.76500962579455
  3
STANDARD
100
AcDbAlignedDimension
 13
16.26333628005035
 23
66.74493451904679
 33
0.0
 14
16.26333628005035
 24
45.97992489325223
 34
0.0
 50
90.0
100
AcDbRotatedDimension
1001
ACAD
1000
DSTYLE
1002
{
1070
    40
1040
1.5
1070
    41
1040
0.75
1070
    42
1040
0.125
1070
    43
1040
0.75
1070
    44
1040
0.75
1070
   140
1040
0.75
1070
   147
1040
0.325
1070
   170
1070
     1
1070
   171
1070
     0
1070
   274
1070
     0
1070
   277
1070
     5
1070
   340
1005
25
1002
}
  0
ARC
  5
89D
330
2
100
AcDbEntity
  8
0
100
AcDbCircle
 10
90.14662830038016
 20
56.36242970614951
 30
0.0
 40
68.01817602040822
100
AcDbArc
 50
180.0
 51
186.6125156348395
  0
LINE
  5
89E
330
2
100
AcDbEntity
  8
0
100
AcDbLine
 10
13.00345227997192
 20
56.3624297061495
 30
0.0
 11
13.00345227997192
 21
50.09845400831391
 31
0.0
  0
DIMENSION
  5
89F
330
2
100
AcDbEntity
  8
0
100
AcDbDimension
  2
*D8
 10
37.63998936507598
 20
53.61254503973552
 30
0.0
 11
37.63998936507596
 21
56.36254503973552
 31
0.0
 70
   160
 71
     5
 42
5.5
  3
STANDARD
100
AcDbAlignedDimension
 13
24.94378243566684
 23
59.11254503973552
 33
0.0
 14
24.94378243566684
 24
53.61254503973552
 34
0.0
 50
90.0
100
AcDbRotatedDimension
1001
ACAD
1000
DSTYLE
1002
{
1070
   270
1070
     5
1070
   270
1070
     5
1070
   270
1070
     5
1070
    40
1040
1.5
1070
    41
1040
0.75
1070
    42
1040
0.125
1070
    43
1040
0.75
1070
    44
1040
0.75
1070
   140
1040
0.75
1070
   147
1040
0.325
1070
   170
1070
     1
1070
   171
1070
     0
1070
   274
1070
     0
1070
   277
1070
     5
1070
   340
1005
25
1002
}
  0
ARC
  5
8A0
330
2
100
AcDbEntity
  8
0
100
AcDbCircle
 10
16.26333628005035
 20
55.85305682610296
 30
0.0
 40
9.873131932850725
100
AcDbArc
 50
267.7658742799753
 51
307.3006029053553
  0
ARC
  5
8A1
330
2
100
AcDbEntity
  8
0
100
AcDbCircle
 10
15.87845227997194
 20
48.98742970614954
 30
0.0
 40
3.0
100
AcDbArc
 50
167.1614318590164
 51
270.0
  0
ARC
  5
8A2
330
2
100
AcDbEntity
  8
0
100
AcDbCircle
 10
11.00345227997192
 20
50.09845400831394
 30
0.0
 40
2.0
100
AcDbArc
 50
347.1614318590164
 51
359.9999999999992
  0
ARC
  5
8A3
330
2
100
AcDbEntity
  8
0
100
AcDbCircle
 10
22.08426018636334
 20
48.47227813119798
 30
0.0
 40
0.5
100
AcDbArc
 50
288.9246444160508
 51
6.61251563484035
  0
CIRCLE
  5
8A4
330
2
100
AcDbEntity
  8
0
100
AcDbCircle
 10
24.94378243566684
 20
53.61254503973552
 30
0.0
 40
0.5495364338001139
  0
ARC
  5
8A5
330
2
100
AcDbEntity
  8
0
100
AcDbCircle
 10
16.26333628005035
 20
56.87180258619607
 30
0.0
 40
9.873131932850725
100
AcDbArc
 50
52.69939709464469
 51
92.2341257200247
  0
ARC
  5
8A6
330
2
100
AcDbEntity
  8
0
100
AcDbCircle
 10
15.87845227997194
 20
63.73742970614948
 30
0.0
 40
3.0
100
AcDbArc
 50
90.0
 51
192.8385681409836
  0
LINE
  5
8A7
330
2
100
AcDbEntity
  8
0
100
AcDbLine
 10
13.00345227997192
 20
56.3624297061495
 30
0.0
 11
13.00345227997194
 21
62.62640540398509
 31
0.0
  0
ARC
  5
8A8
330
2
100
AcDbEntity
  8
0
100
AcDbCircle
 10
11.00345227997192
 20
62.62640540398509
 30
0.0
 40
2.0
100
AcDbArc
 50
0.0
 51
12.8385681409836
  0
LINE
  5
8A9
102
{ACAD_REACTORS
330
9F6
102
}
330
2
100
AcDbEntity
  8
0
100
AcDbLine
 10
10.95571747819097
 20
70.73437900378694
 30
0.0
 11
12.37845227997194
 21
70.73437900378696
 31
0.0
  0
ARC
  5
8AA
330
2
100
AcDbEntity
  8
0
100
AcDbCircle
 10
90.14662830038016
 20
56.36242970614948
 30
0.0
 40
68.01817602040822
100
AcDbArc
 50
173.3874843651604
 51
180.0
  0
CIRCLE
  5
8AB
330
2
100
AcDbEntity
  8
0
100
AcDbCircle
 10
24.94378243566684
 20
59.11254503973552
 30
0.0
 40
0.5495364338001139
  0
ARC
  5
8AC
330
2
100
AcDbEntity
  8
0
100
AcDbCircle
 10
22.08426018636334
 20
64.25258128110101
 30
0.0
 40
0.5
100
AcDbArc
 50
353.3874843651596
 51
71.07535558394923
  0
LINE
  5
8B9
102
{ACAD_REACTORS
330
9F6
102
}
330
2
100
AcDbEntity
  8
0
100
AcDbLine
 10
10.95571747819097
 20
45.22454705862553
 30
0.0
 11
12.37845227997194
 21
45.22454705862554
 31
0.0
  0
DIMENSION
  5
8BA
330
2
100
AcDbEntity
  8
0
100
AcDbDimension
  2
*D9
 10
7.914419777897216
 20
50.35162780013093
 30
0.0
 11
7.914419777897208
 21
53.48752814251921
 31
0.0
 70
   160
 71
     5
 42
5.749999999999992
  3
STANDARD
100
AcDbAlignedDimension
 13
15.98283306231301
 23
56.10162780013093
 33
0.0
 14
16.11127988221931
 24
50.35162780013092
 34
0.0
 50
90.0
100
AcDbRotatedDimension
1001
ACAD
1000
DSTYLE
1002
{
1070
    40
1040
1.5
1070
    41
1040
0.75
1070
    42
1040
0.125
1070
    43
1040
0.75
1070
    44
1040
0.75
1070
   140
1040
0.75
1070
   147
1040
0.325
1070
   170
1070
     1
1070
   171
1070
     0
1070
   274
1070
     0
1070
   277
1070
     5
1070
   340
1005
25
1002
}
  0
DIMENSION
  5
8BB
330
2
100
AcDbEntity
  8
0
100
AcDbDimension
  2
*D10
 10
12.37845227997194
 20
43.14689954624756
 30
0.0
 11
7.633832566465802
 21
43.14689954624756
 31
0.0
 70
    32
 71
     5
 42
4.452827602247374
  3
STANDARD
100
AcDbAlignedDimension
 13
16.83127988221931
 23
49.63162780013092
 33
0.0
 14
12.37845227997194
 24
49.89252814251921
 34
0.0
100
AcDbRotatedDimension
1001
ACAD
1000
DSTYLE
1002
{
1070
    40
1040
1.5
1070
    41
1040
0.75
1070
    42
1040
0.125
1070
    43
1040
0.75
1070
    44
1040
0.75
1070
   140
1040
0.75
1070
   147
1040
0.325
1070
   170
1070
     1
1070
   171
1070
     0
1070
   274
1070
     0
1070
   277
1070
     5
1070
   340
1005
25
1002
}
  0
CIRCLE
  5
8BC
330
2
100
AcDbEntity
  8
0
  6
HIDDEN
100
AcDbCircle
 10
16.83127988221931
 20
50.35162780013092
 30
0.0
 40
0.5
  0
CIRCLE
  5
8BD
330
2
100
AcDbEntity
  8
0
100
AcDbCircle
 10
17.60783306231302
 20
53.10162780013093
 30
0.0
 40
0.25
  0
CIRCLE
  5
8BE
330
2
100
AcDbEntity
  8
0
100
AcDbCircle
 10
17.60783306231302
 20
59.10162780013092
 30
0.0
 40
0.25
  0
CIRCLE
  5
8BF
330
2
100
AcDbEntity
  8
0
  6
HIDDEN
100
AcDbCircle
 10
17.60783306231301
 20
56.10162780013093
 30
0.0
 40
1.5
  0
LINE
  5
8C0
330
2
100
AcDbEntity
  8
0
100
AcDbLine
 10
16.88783306231302
 20
59.10162780013092
 30
0.0
 11
18.32783306231302
 21
59.10162780013092
 31
0.0
  0
LINE
  5
8C1
330
2
100
AcDbEntity
  8
0
100
AcDbLine
 10
17.60783306231302
 20
58.38162780013092
 30
0.0
 11
17.60783306231302
 21
59.82162780013092
 31
0.0
  0
LINE
  5
8C2
330
2
100
AcDbEntity
  8
0
100
AcDbLine
 10
16.88783306231302
 20
53.10162780013093
 30
0.0
 11
18.32783306231302
 21
53.10162780013093
 31
0.0
  0
LINE
  5
8C3
330
2
100
AcDbEntity
  8
0
100
AcDbLine
 10
17.60783306231302
 20
52.38162780013093
 30
0.0
 11
17.60783306231302
 21
53.82162780013093
 31
0.0
  0
LINE
  5
8C4
330
2
100
AcDbEntity
  8
0
100
AcDbLine
 10
16.11127988221931
 20
50.35162780013092
 30
0.0
 11
17.55127988221931
 21
50.35162780013092
 31
0.0
  0
LINE
  5
8C5
330
2
100
AcDbEntity
  8
0
100
AcDbLine
 10
16.83127988221931
 20
49.63162780013092
 30
0.0
 11
16.83127988221931
 21
51.07162780013092
 31
0.0
  0
LINE
  5
8C6
330
2
100
AcDbEntity
  8
0
100
AcDbLine
 10
15.98283306231301
 20
56.10162780013093
 30
0.0
 11
19.23283306231301
 21
56.10162780013093
 31
0.0
  0
LINE
  5
8C7
330
2
100
AcDbEntity
  8
0
100
AcDbLine
 10
17.60783306231301
 20
54.47662780013093
 30
0.0
 11
17.60783306231301
 21
57.72662780013092
 31
0.0
  0
LINE
  5
965
330
2
100
AcDbEntity
  8
0
  6
CENTER
100
AcDbLine
 10
16.83127988221931
 20
20.99131111772128
 30
0.0
 11
16.83127988221931
 21
14.91257066320433
 31
0.0
  0
LINE
  5
966
102
{ACAD_REACTORS
330
9F6
102
}
330
2
100
AcDbEntity
  8
0
  6
CENTER
100
AcDbLine
 10
6.261622352973804
 20
14.91257066320433
 30
0.0
 11
16.83127988221931
 21
14.91257066320433
 31
0.0
  0
DIMENSION
  5
967
330
2
100
AcDbEntity
  8
0
100
AcDbDimension
  2
*D11
 10
7.386622352973802
 20
4.912570663204335
 30
0.0
 11
7.386622352973802
 21
9.912570663204338
 31
0.0
 70
    32
 71
     5
 42
10.0
  3
STANDARD
100
AcDbAlignedDimension
 13
7.386622352973804
 23
14.91257066320433
 33
0.0
 14
12.26523762741971
 24
4.912570663204334
 34
0.0
 50
90.0
100
AcDbRotatedDimension
1001
ACAD
1000
DSTYLE
1002
{
1070
    40
1040
1.5
1070
    41
1040
0.75
1070
    42
1040
0.125
1070
    43
1040
0.75
1070
    44
1040
0.75
1070
   140
1040
0.75
1070
   147
1040
0.325
1070
   170
1070
     1
1070
   171
1070
     0
1070
   274
1070
     0
1070
   277
1070
     5
1070
   340
1005
25
1002
}
  0
LEADER
  5
986
330
2
100
AcDbEntity
  8
0
100
AcDbLeader
  3
STANDARD
 73
     0
 40
4.449643332196453
 41
6.649238062755797
 76
     2
 10
7.386622352973804
 20
14.91257066320433
 30
0.0
 10
7.386622352973804
 20
17.61074349154142
 30
0.0
340
987
211
0.0000000000000001
221
1.0
231
0.0
213
2.602150351944148
223
0.1980663719372515
233
0.0
1001
ACAD
1000
DSTYLE
1002
{
1070
    77
1070
     0
1070
    40
1040
1.5
1070
    41
1040
0.75
1070
    42
1040
0.125
1070
    43
1040
0.75
1070
    44
1040
0.75
1070
   140
1040
0.75
1070
   147
1040
0.325
1070
   170
1070
     1
1070
   171
1070
     0
1070
   274
1070
     0
1070
   277
1070
     5
1070
   340
1005
25
1002
}
  0
MTEXT
  5
987
102
{ACAD_REACTORS
330
986
102
}
330
2
100
AcDbEntity
  8
0
100
AcDbMText
 10
4.784472001029656
 20
17.90017711960417
 30
0.0
 40
1.125
 41
0.0
 71
     1
 72
     1
  1
\A1;C/L {\H1.089x;\S3/8;} [10]\PI.P.S.
  7
ARIAL
 11
0.0000000000000001
 21
1.0
 31
0.0
 73
     1
 44
1.0
1001
ACAD
1000
ACAD_MTEXT_DEFINED_HEIGHT_BEGIN
1070
    46
1040
0.0
1000
ACAD_MTEXT_DEFINED_HEIGHT_END
1000
MTEXTBEGIN
1070
    73
1070
     1
1070
    44
1040
1.0
1070
    74
1070
     0
1000
MTEXTEND
  0
LINE
  5
9A3
330
2
100
AcDbEntity
  8
0
 48
2.0
100
AcDbLine
 10
16.19069400332596
 20
20.58134746727446
 30
0.0
 11
16.19069400332597
 21
19.35304780382397
 31
0.0
  0
LINE
  5
9A4
330
2
100
AcDbEntity
  8
0
 48
2.0
100
AcDbLine
 10
17.47186576111266
 20
20.58134746727447
 30
0.0
 11
17.47186576111267
 21
19.27583841736309
 31
0.0
  0
LINE
  5
9A5
330
2
100
AcDbEntity
  8
0
 48
2.0
100
AcDbLine
 10
16.83127988221931
 20
19.47404184970237
 30
0.0
 11
16.19069400332596
 21
19.47404184970237
 31
0.0
  0
LINE
  5
9A6
330
2
100
AcDbEntity
  8
0
 48
2.0
100
AcDbLine
 10
16.83127988221931
 20
19.63029184970237
 30
0.0
 11
16.19069400332596
 21
19.63029184970237
 31
0.0
  0
LINE
  5
9A7
330
2
100
AcDbEntity
  8
0
 48
2.0
100
AcDbLine
 10
16.83127988221931
 20
19.78654184970237
 30
0.0
 11
16.19069400332596
 21
19.78654184970237
 31
0.0
  0
LINE
  5
9A8
330
2
100
AcDbEntity
  8
0
 48
2.0
100
AcDbLine
 10
16.83127988221931
 20
19.94279184970237
 30
0.0
 11
16.19069400332596
 21
19.94279184970237
 31
0.0
  0
LINE
  5
9A9
330
2
100
AcDbEntity
  8
0
 48
2.0
100
AcDbLine
 10
17.47186576111266
 20
19.47404184970237
 30
0.0
 11
16.83127988221931
 21
19.47404184970237
 31
0.0
  0
LINE
  5
9AA
330
2
100
AcDbEntity
  8
0
 48
2.0
100
AcDbLine
 10
17.47186576111266
 20
19.63029184970237
 30
0.0
 11
16.83127988221931
 21
19.63029184970237
 31
0.0
  0
LINE
  5
9AB
330
2
100
AcDbEntity
  8
0
 48
2.0
100
AcDbLine
 10
17.47186576111266
 20
19.78654184970237
 30
0.0
 11
16.83127988221931
 21
19.78654184970237
 31
0.0
  0
LINE
  5
9AC
330
2
100
AcDbEntity
  8
0
 48
2.0
100
AcDbLine
 10
17.47186576111266
 20
19.94279184970237
 30
0.0
 11
16.83127988221931
 21
19.94279184970237
 31
0.0
  0
LINE
  5
9AF
330
2
100
AcDbEntity
  8
0
 48
2.0
100
AcDbLine
 10
16.83127988221931
 20
20.09904184970237
 30
0.0
 11
16.19069400332597
 21
20.09904184970237
 31
0.0
  0
LINE
  5
9B0
330
2
100
AcDbEntity
  8
0
 48
2.0
100
AcDbLine
 10
17.47186576111267
 20
20.09904184970237
 30
0.0
 11
16.83127988221931
 21
20.09904184970237
 31
0.0
  0
LINE
  5
9B1
330
2
100
AcDbEntity
  8
0
 48
2.0
100
AcDbLine
 10
16.83127988221931
 20
20.25529184970237
 30
0.0
 11
16.19069400332596
 21
20.25529184970237
 31
0.0
  0
LINE
  5
9B2
330
2
100
AcDbEntity
  8
0
 48
2.0
100
AcDbLine
 10
17.47186576111266
 20
20.25529184970237
 30
0.0
 11
16.83127988221931
 21
20.25529184970237
 31
0.0
  0
LINE
  5
9B3
330
2
100
AcDbEntity
  8
0
 48
2.0
100
AcDbLine
 10
16.83127988221931
 20
20.41154184970237
 30
0.0
 11
16.19069400332596
 21
20.41154184970237
 31
0.0
  0
LINE
  5
9B4
330
2
100
AcDbEntity
  8
0
 48
2.0
100
AcDbLine
 10
17.47186576111266
 20
20.41154184970237
 30
0.0
 11
16.83127988221931
 21
20.41154184970237
 31
0.0
  0
LINE
  5
9B5
330
2
100
AcDbEntity
  8
0
 48
2.0
100
AcDbLine
 10
16.83127988221931
 20
20.56779184970237
 30
0.0
 11
16.19069400332596
 21
20.56779184970237
 31
0.0
  0
LINE
  5
9B6
330
2
100
AcDbEntity
  8
0
 48
2.0
100
AcDbLine
 10
17.47186576111266
 20
20.56779184970237
 30
0.0
 11
16.83127988221931
 21
20.56779184970237
 31
0.0
  0
LINE
  5
9B7
330
2
100
AcDbEntity
  8
0
100
AcDbLine
 10
16.33127988221932
 20
19.94279184970237
 30
0.0
 11
17.33127988221931
 21
19.94279184970237
 31
0.0
  0
LINE
  5
9B8
330
2
100
AcDbEntity
  8
0
 48
2.0
100
AcDbLine
 10
17.47186576111266
 20
19.31779184970237
 30
0.0
 11
16.77571267508168
 21
19.31779184970238
 31
0.0
  0
HATCH
  5
9F6
330
2
100
AcDbEntity
  8
0
100
AcDbHatch
 10
0.0
 20
0.0
 30
0.0
210
0.0
220
0.0
230
1.0
  2
ANSI31
 70
     0
 71
     1
 91
        3
 92
        7
 72
     0
 73
     1
 93
        4
 10
12.2652376274197
 20
14.91257066320433
 10
10.84250282563874
 20
14.91257066320434
 10
10.84250282563875
 20
4.912570663204334
 10
12.2652376274197
 20
4.912570663204334
 97
        4
330
966
330
666
330
65F
330
665
 92
        7
 72
     0
 73
     1
 93
        4
 10
12.2652376274197
 20
39.48370650498279
 10
10.84250282563874
 20
39.48370650498279
 10
10.84250282563874
 20
14.91257066320433
 10
12.26523762741971
 20
14.91257066320433
 97
        4
330
684
330
666
330
966
330
665
 92
        7
 72
     0
 73
     1
 93
        4
 10
12.37845227997193
 20
70.73437900378694
 10
10.95571747819097
 20
70.73437900378694
 10
10.95571747819097
 20
45.22454705862553
 10
12.37845227997194
 20
45.22454705862555
 97
        4
330
8A9
330
89A
330
8B9
330
89B
 75
     0
 76
     1
 52
0.0
 41
4.0
 77
     0
 78
     1
 53
45.0
 43
0.0
 44
0.0
 45
-0.3535533905932737
 46
0.3535533905932738
 79
     0
 47
0.1656896272309926
 98
        3
 10
11.27780621143995
 20
10.78630976644774
 10
11.11199264591715
 20
17.74527419438522
 10
11.60943305760889
 20
52.37440628516899
1001
ACAD
1010
0.0
1020
0.0
1030
0.0
  0
ARC
  5
A62
330
2
100
AcDbEntity
  8
0
100
AcDbCircle
 10
33.67516006525402
 20
50.04423713498891
 30
0.0
 40
11.99418866734252
100
AcDbArc
 50
59.39352865760465
 51
90.42707441366367
  0
LINE
  5
A63
330
2
100
AcDbEntity
  8
0
  6
CENTER
100
AcDbLine
 10
24.94378243566684
 20
59.59420446873749
 30
0.0
 11
24.94378243566684
 21
53.13088561073357
 31
0.0
  0
ARC
  5
A64
330
2
100
AcDbEntity
  8
0
100
AcDbCircle
 10
33.0912124038055
 20
55.92247250863803
 30
0.0
 40
5.258780670552185
100
AcDbArc
 50
175.199681766109
 51
275.3961759220483
  0
ARC
  5
A66
330
2
100
AcDbEntity
  8
0
100
AcDbCircle
 10
33.0912124038055
 20
56.80261757083307
 30
0.0
 40
5.258780670552185
100
AcDbArc
 50
84.60382407795171
 51
184.8003182338905
  0
ARC
  5
A71
330
2
100
AcDbEntity
  8
0
100
AcDbCircle
 10
37.43100559754637
 20
56.06410209481509
 30
0.0
 40
4.903604813547268
100
AcDbArc
 50
3.489289219617951
 51
61.35283086843521
  0
ARC
  5
A73
330
2
100
AcDbEntity
  8
0
100
AcDbCircle
 10
33.67516006525402
 20
62.68085294448215
 30
0.0
 40
11.99418866734252
100
AcDbArc
 50
269.5729255863363
 51
300.6064713423953
  0
ARC
  5
A76
330
2
100
AcDbEntity
  8
0
100
AcDbCircle
 10
37.43100559754637
 20
56.66098798465598
 30
0.0
 40
4.903604813547268
100
AcDbArc
 50
298.6471691315648
 51
356.5107107803821
  0
ARC
  5
B01
330
2
100
AcDbEntity
  8
0
100
AcDbCircle
 10
31.42473632851562
 20
56.36254503973554
 30
0.0
 40
0.9929807208641108
100
AcDbArc
 50
270.0
 51
90.0
  0
ARC
  5
B02
330
2
100
AcDbEntity
  8
AM_VIS
100
AcDbCircle
 10
31.43058572920097
 20
56.36254503973554
 30
0.0
 40
1.704134999999999
100
AcDbArc
 50
144.3601042415989
 51
215.6398957584011
  0
LINE
  5
B03
330
2
100
AcDbEntity
  8
0
100
AcDbLine
 10
30.04564335270397
 20
55.36956431887143
 30
0.0
 11
31.42473632851562
 21
55.36956431887143
 31
0.0
  0
ARC
  5
B04
330
2
100
AcDbEntity
  8
0
100
AcDbCircle
 10
30.97588198142307
 20
56.36254503973554
 30
0.0
 40
0.7429807208641109
100
AcDbArc
 50
270.0
 51
90.0
  0
LINE
  5
B05
330
2
100
AcDbEntity
  8
0
100
AcDbLine
 10
30.04564335270397
 20
57.35552576059966
 30
0.0
 11
31.42473632851562
 21
57.35552576059966
 31
0.0
  0
LINE
  5
B06
330
2
100
AcDbEntity
  8
0
100
AcDbLine
 10
29.89694439347438
 20
57.10552576059967
 30
0.0
 11
30.97588198142307
 21
57.10552576059965
 31
0.0
  0
LINE
  5
B07
330
2
100
AcDbEntity
  8
0
100
AcDbLine
 10
29.89694439347437
 20
55.61956431887143
 30
0.0
 11
30.97588198142307
 21
55.61956431887143
 31
0.0
  0
ARC
  5
B78
330
2
100
AcDbEntity
  8
0
100
AcDbCircle
 10
42.3902376274197
 20
19.53757066320434
 30
0.0
 40
0.75
100
AcDbArc
 50
0.0
 51
90.0
  0
LINE
  5
B79
330
2
100
AcDbEntity
  8
0
100
AcDbLine
 10
43.1402376274197
 20
19.53757066320434
 30
0.0
 11
43.1402376274197
 21
18.89236123353385
 31
0.0
  0
ARC
  5
BAD
330
2
100
AcDbEntity
  8
0
100
AcDbCircle
 10
33.73310406681419
 20
49.82658725340023
 30
0.0
 40
13.91225259267579
100
AcDbArc
 50
58.85045169960942
 51
90.739680589037
  0
ARC
  5
BAE
330
2
100
AcDbEntity
  8
0
100
AcDbCircle
 10
33.05687036242396
 20
54.43685686199561
 30
0.0
 40
9.314073520063786
100
AcDbArc
 50
86.94349625731707
 51
121.5929945248478
  0
ARC
  5
BAF
330
2
100
AcDbEntity
  8
0
100
AcDbCircle
 10
37.93086670673719
 20
56.72768617153961
 30
0.0
 40
5.834809211304932
100
AcDbArc
 50
356.4120977373579
 51
59.08943587187675
  0
ARC
  5
BB0
330
2
100
AcDbEntity
  8
0
100
AcDbCircle
 10
37.93086670673719
 20
55.99740390793145
 30
0.0
 40
5.834809211304932
100
AcDbArc
 50
301.703848504663
 51
3.587902262642082
  0
ARC
  5
BB1
330
2
100
AcDbEntity
  8
0
100
AcDbCircle
 10
33.73310406681419
 20
62.89850282607083
 30
0.0
 40
13.91225259267579
100
AcDbArc
 50
269.2603194109598
 51
301.4758084935983
  0
ARC
  5
BB3
330
2
100
AcDbEntity
  8
0
100
AcDbCircle
 10
33.05687036242398
 20
58.28823321747555
 30
0.0
 40
9.314073520063841
100
AcDbArc
 50
238.407005475155
 51
273.056503742678
  0
ARC
  5
BB6
330
2
100
AcDbEntity
  8
0
100
AcDbCircle
 10
19.94255038859986
 20
79.16430399620068
 30
0.0
 40
18.70413125315163
100
AcDbArc
 50
288.9414159888853
 51
296.1210373227826
  0
ARC
  5
BBF
330
2
100
AcDbEntity
  8
0
100
AcDbCircle
 10
19.94255038859986
 20
33.56078608327037
 30
0.0
 40
18.70413125315163
100
AcDbArc
 50
63.87896267721608
 51
71.05821026678277
  0
DIMENSION
  5
BE8
330
2
100
AcDbEntity
  8
0
100
AcDbDimension
  2
*D14
 10
48.62068903436744
 20
48.98740955680555
 30
0.0
 11
48.62068903436743
 21
56.36254503973553
 31
0.0
 70
    32
 71
     5
 42
14.75027096585995
  3
STANDARD
100
AcDbAlignedDimension
 13
33.55350379895089
 23
63.73768052266551
 33
0.0
 14
33.55350379895012
 24
48.98740955680556
 34
0.0
 50
90.0
100
AcDbRotatedDimension
1001
ACAD
1000
DSTYLE
1002
{
1070
    40
1040
1.5
1070
    41
1040
0.75
1070
    42
1040
0.125
1070
    43
1040
0.75
1070
    44
1040
0.75
1070
   140
1040
0.75
1070
   147
1040
0.325
1070
   170
1070
     1
1070
   171
1070
     0
1070
   274
1070
     0
1070
   277
1070
     5
1070
   340
1005
25
1002
}
  0
LINE
  5
C58
330
2
100
AcDbEntity
  8
0
100
AcDbLine
 10
24.94378243566684
 20
59.30004503973552
 30
0.0
 11
24.94378243566684
 21
68.94499870136044
 31
0.0
  0
LINE
  5
C59
330
2
100
AcDbEntity
  8
0
100
AcDbLine
 10
43.76567591804212
 20
56.91518617153961
 30
0.0
 11
43.76567591804212
 21
68.94499870136044
 31
0.0
  0
LINE
  5
C5A
330
2
100
AcDbEntity
  8
0
100
AcDbLine
 10
26.06878243566684
 20
67.81999870136044
 30
0.0
 11
30.37328306498544
 21
67.81999870136044
 31
0.0
  0
LINE
  5
C5B
330
2
100
AcDbEntity
  8
0
100
AcDbLine
 10
42.64067591804212
 20
67.81999870136044
 30
0.0
 11
38.33617528872351
 21
67.81999870136044
 31
0.0
  0
SOLID
  5
C5C
330
2
100
AcDbEntity
  8
0
100
AcDbTrace
 10
26.06878243566684
 20
68.00749870136044
 30
0.0
 11
26.06878243566684
 21
67.63249870136045
 31
0.0
 12
24.94378243566684
 22
67.81999870136044
 32
0.0
 13
24.94378243566684
 23
67.81999870136044
 33
0.0
  0
SOLID
  5
C5D
330
2
100
AcDbEntity
  8
0
100
AcDbTrace
 10
42.64067591804212
 20
68.00749870136044
 30
0.0
 11
42.64067591804212
 21
67.63249870136045
 31
0.0
 12
43.76567591804212
 22
67.81999870136044
 32
0.0
 13
43.76567591804212
 23
67.81999870136044
 33
0.0
  0
MTEXT
  5
C65
330
2
100
AcDbEntity
  8
0
100
AcDbMText
 10
34.31815818258025
 20
67.81999870136044
 30
0.0
 40
1.125
 41
0.0
 71
     5
 72
     1
  1
\A1;16{\H1.000000x;\S3/4;} [426]
  7
ARIAL
 73
     1
 44
1.0
1001
ACAD
1000
MTEXTBEGIN
1070
    73
1070
     1
1070
    44
1040
1.0
1070
    74
1070
     0
1000
MTEXTEND
  0
ENDSEC
  0
SECTION
  2
OBJECTS
  0
DICTIONARY
  5
8
330
0
100
AcDbDictionary
281
     1
  3
ACAD_COLOR
350
80B
  3
ACAD_GROUP
350
22
  3
ACAD_LAYOUT
350
C
  3
ACAD_MATERIAL
350
80A
  3
ACAD_MLINESTYLE
350
23
  3
ACAD_PLOTSETTINGS
350
24
  3
ACAD_PLOTSTYLENAME
350
7
  3
ACAD_TABLESTYLE
350
80C
  3
ACDBHEADERROUNDTRIPXREC
350
C71
  3
AcDbVariableDictionary
350
12B
  3
AMAcad
350
802
  0
DICTIONARY
  5
3
330
2
100
AcDbDictionary
280
     1
281
     1
  3
ACAD_LAYOUTSELFREF
360
504
  3
ACAD_SORTENTS
360
9F7
  0
DICTIONARY
  5
E
330
D
100
AcDbDictionary
280
     1
281
     1
  3
ACAD_LAYOUTSELFREF
360
509
  0
DICTIONARY
  5
80B
102
{ACAD_REACTORS
330
8
102
}
330
8
100
AcDbDictionary
281
     1
  0
DICTIONARY
  5
22
102
{ACAD_REACTORS
330
8
102
}
330
8
100
AcDbDictionary
281
     1
  0
DICTIONARY
  5
C
102
{ACAD_REACTORS
330
8
102
}
330
8
100
AcDbDictionary
281
     1
  3
Layout1
350
11
  3
Model
350
B
  0
DICTIONARY
  5
80A
102
{ACAD_REACTORS
330
8
102
}
330
8
100
AcDbDictionary
281
     1
  0
DICTIONARY
  5
23
102
{ACAD_REACTORS
330
8
102
}
330
8
100
AcDbDictionary
281
     1
  3
STANDARD
350
26
  0
DICTIONARY
  5
24
102
{ACAD_REACTORS
330
8
102
}
330
8
100
AcDbDictionary
281
     1
  0
ACDBDICTIONARYWDFLT
  5
7
102
{ACAD_REACTORS
330
8
102
}
330
8
100
AcDbDictionary
281
     1
  3
Normal
350
6
100
AcDbDictionaryWithDefault
340
6
  0
DICTIONARY
  5
80C
102
{ACAD_REACTORS
330
8
102
}
330
8
100
AcDbDictionary
281
     1
  3
Standard
350
80D
  0
DICTIONARY
  5
C71
102
{ACAD_REACTORS
330
8
102
}
330
8
100
AcDbDictionary
281
     1
  0
DICTIONARY
  5
12B
102
{ACAD_REACTORS
330
8
102
}
330
8
100
AcDbDictionary
281
     1
  3
CTABLESTYLE
350
9BB
  3
DIMASSOC
350
12D
  3
HIDETEXT
350
12C
  3
PROJECTNAME
350
C6F
  0
DICTIONARY
  5
802
102
{ACAD_REACTORS
330
8
102
}
330
8
100
AcDbDictionary
281
     1
  3
AM_LOADER
350
803
  0
XRECORD
  5
504
102
{ACAD_REACTORS
330
3
102
}
330
3
100
AcDbXrecord
280
     1
340
2
  0
SORTENTSTABLE
  5
9F7
102
{ACAD_REACTORS
330
3
102
}
330
3
100
AcDbSortentsTable
330
2
331
66B
  5
66C
331
89F
  5
8A0
331
A73
  5
B78
331
8A7
  5
8A8
331
9A4
  5
9A8
331
C58
  5
C22
331
67B
  5
67C
331
9AC
  5
9B2
331
8BF
  5
8C3
331
9B4
  5
9B8
331
683
  5
684
331
B03
  5
BB0
331
965
  5
987
331
68B
  5
68C
331
8C7
  5
986
331
65C
  5
65C
331
69B
  5
69C
331
898
  5
899
331
6A3
  5
6A4
331
A64
  5
A74
331
66C
  5
66D
331
8A0
  5
8A1
331
C59
  5
C58
331
9A5
  5
9A9
331
8A8
  5
8A9
331
674
  5
67A
331
BB3
  5
B01
331
67C
  5
67D
331
684
  5
688
331
8C0
  5
8C4
331
9B5
  5
9DB
331
B04
  5
BB1
331
655
  5
655
331
68C
  5
68D
331
966
  5
9A3
331
69C
  5
69D
331
65D
  5
65D
331
899
  5
89A
331
665
  5
666
331
6A4
  5
6A5
331
66D
  5
66E
331
8A1
  5
8A2
331
986
  5
9A5
331
C5A
  5
C59
331
9A6
  5
9AA
331
8A9
  5
8AA
331
8B9
  5
8BD
331
67D
  5
67E
331
8C1
  5
8C5
331
9B6
  5
A62
331
B05
  5
BB2
331
656
  5
656
331
68D
  5
698
331
967
  5
9A4
331
9F6
  5
65F
331
69D
  5
69E
331
65E
  5
65E
331
89A
  5
89B
331
666
  5
667
331
6A5
  5
6A6
331
A66
  5
B02
331
A76
  5
BAD
331
66E
  5
66F
331
8A2
  5
8A3
331
987
  5
9A6
331
C5B
  5
C5A
331
9A7
  5
9AB
331
BAD
  5
A65
331
8AA
  5
8AB
331
67E
  5
67F
331
8BA
  5
8BE
331
9AF
  5
9B3
331
8C2
  5
8C6
331
9B7
  5
A63
331
657
  5
657
331
B06
  5
BB3
331
65F
  5
663
331
69E
  5
69F
331
89B
  5
89C
331
667
  5
668
331
6A6
  5
6A7
331
66F
  5
670
331
8A3
  5
8A4
331
C5C
  5
C5B
331
BAE
  5
B03
331
9A8
  5
9AC
331
8AB
  5
8AC
331
BB6
  5
8BB
331
67F
  5
680
331
8BB
  5
8BF
331
9B0
  5
9B4
331
8C3
  5
8C7
331
9B8
  5
A64
331
B07
  5
BB4
331
658
  5
658
331
69F
  5
6A0
331
89C
  5
89D
331
668
  5
669
331
6A7
  5
6B6
331
8A4
  5
8A5
331
C5D
  5
C5C
331
BAF
  5
B05
331
670
  5
671
331
8AC
  5
8AD
331
9A9
  5
9AF
331
C65
  5
C65
331
680
  5
681
331
8BC
  5
8C0
331
9B1
  5
9B5
331
8C4
  5
8C8
331
BBF
  5
BBF
331
688
  5
68A
331
B78
  5
BB5
331
659
  5
659
331
698
  5
699
331
6A0
  5
6A1
331
A71
  5
B07
331
669
  5
66A
331
89D
  5
89E
331
8A5
  5
8A6
331
671
  5
672
331
BB0
  5
BAC
331
9AA
  5
9B0
331
8BD
  5
8C1
331
9B2
  5
9B6
331
681
  5
682
331
8C5
  5
966
331
B01
  5
BAE
331
B79
  5
BB6
331
65A
  5
65A
331
699
  5
69A
331
A62
  5
A67
331
BE8
  5
BE8
331
6A1
  5
6A2
331
89E
  5
89F
331
66A
  5
66B
331
8A6
  5
8A7
331
9A3
  5
9A7
331
672
  5
674
331
BB1
  5
B79
331
67A
  5
67B
331
9AB
  5
9B1
331
8BE
  5
8C2
331
9B3
  5
9B7
331
682
  5
683
331
B02
  5
BAF
331
68A
  5
68B
331
8C6
  5
967
331
65B
  5
65B
331
69A
  5
69B
331
A63
  5
A71
331
6A2
  5
6A3
331
663
  5
665
331
897
  5
898
  0
XRECORD
  5
509
102
{ACAD_REACTORS
330
E
102
}
330
E
100
AcDbXrecord
280
     1
340
D
  0
LAYOUT
  5
11
102
{ACAD_XDICTIONARY
360
C74
102
}
102
{ACAD_REACTORS
330
C
102
}
330
C
100
AcDbPlotSettings
  1

  2
\\CORP_FILEPRNT\SFRD_ENG_5SI
  4

  6

 40
0.0
 41
0.0
 42
0.0
 43
0.0
 44
0.0
 45
0.0
 46
0.0
 47
0.0
 48
0.0
 49
0.0
140
0.0
141
0.0
142
1.0
143
1.0
 70
   688
 72
     0
 73
     0
 74
     5
  7

 75
    16
147
1.0
148
0.0
149
0.0
100
AcDbLayout
  1
Layout1
 70
     1
 71
     1
 10
0.0
 20
0.0
 11
12.0
 21
9.0
 12
0.0
 22
0.0
 32
0.0
 14
1.000000000000000E+20
 24
1.000000000000000E+20
 34
1.000000000000000E+20
 15
-1.000000000000000E+20
 25
-1.000000000000000E+20
 35
-1.000000000000000E+20
146
0.0
 13
0.0
 23
0.0
 33
0.0
 16
1.0
 26
0.0
 36
0.0
 17
0.0
 27
1.0
 37
0.0
 76
     0
330
D
  0
LAYOUT
  5
B
102
{ACAD_XDICTIONARY
360
C72
102
}
102
{ACAD_REACTORS
330
C
102
}
330
C
100
AcDbPlotSettings
  1

  2
\\CORP_FILEPRNT\SFRD_ENG_5SI
  4

  6

 40
0.0
 41
0.0
 42
0.0
 43
0.0
 44
0.0
 45
0.0
 46
0.0
 47
0.0
 48
0.0
 49
0.0
140
0.0
141
0.0
142
1.0
143
1.0
 70
  1712
 72
     0
 73
     0
 74
     0
  7

 75
     0
147
1.0
148
0.0
149
0.0
100
AcDbLayout
  1
Model
 70
     1
 71
     0
 10
0.0
 20
0.0
 11
12.0
 21
9.0
 12
0.0
 22
0.0
 32
0.0
 14
0.0
 24
0.0
 34
0.0
 15
0.0
 25
0.0
 35
0.0
146
0.0
 13
0.0
 23
0.0
 33
0.0
 16
1.0
 26
0.0
 36
0.0
 17
0.0
 27
1.0
 37
0.0
 76
     0
330
2
  0
MLINESTYLE
  5
26
102
{ACAD_REACTORS
330
23
102
}
330
23
100
AcDbMlineStyle
  2
STANDARD
 70
     0
  3

 62
   256
 51
90.0
 52
90.0
 71
     2
 49
0.5
 62
   256
  6
BYLAYER
 49
-0.5
 62
   256
  6
BYLAYER
  0
ACDBPLACEHOLDER
  5
6
102
{ACAD_REACTORS
330
7
102
}
330
7
  0
TABLESTYLE
  5
80D
102
{ACAD_REACTORS
330
80C
102
}
330
80C
100
AcDbTableStyle
  3
Standard
 70
     0
 71
     0
 40
0.06
 41
0.06
280
     0
281
     0
  7
STANDARD
140
0.18
170
     2
 62
     0
 63
     7
283
     0
274
    -2
284
     1
 64
     0
275
    -2
285
     1
 65
     0
276
    -2
286
     1
 66
     0
277
    -2
287
     1
 67
     0
278
    -2
288
     1
 68
     0
279
    -2
289
     1
 69
     0
  7
STANDARD
140
0.25
170
     5
 62
     0
 63
     7
283
     0
274
    -2
284
     1
 64
     0
275
    -2
285
     1
 65
     0
276
    -2
286
     1
 66
     0
277
    -2
287
     1
 67
     0
278
    -2
288
     1
 68
     0
279
    -2
289
     1
 69
     0
  7
STANDARD
140
0.18
170
     5
 62
     0
 63
     7
283
     0
274
    -2
284
     1
 64
     0
275
    -2
285
     1
 65
     0
276
    -2
286
     1
 66
     0
277
    -2
287
     1
 67
     0
278
    -2
288
     1
 68
     0
279
    -2
289
     1
 69
     0
  0
DICTIONARYVAR
  5
9BB
102
{ACAD_REACTORS
330
12B
102
}
330
12B
100
DictionaryVariables
280
     0
  1
STANDARD
  0
DICTIONARYVAR
  5
12D
102
{ACAD_REACTORS
330
12B
102
}
330
12B
100
DictionaryVariables
280
     0
  1
1
  0
DICTIONARYVAR
  5
12C
102
{ACAD_REACTORS
330
12B
102
}
330
12B
100
DictionaryVariables
280
     0
  1
1
  0
DICTIONARYVAR
  5
C6F
102
{ACAD_REACTORS
330
12B
102
}
330
12B
100
DictionaryVariables
280
     0
  1

  0
AMLOADER
  5
803
102
{ACAD_REACTORS
330
802
102
}
330
802
100
AMLoader
 90
        1
 70
     6
 70
     0
 70
  1675
 70
  1675
280
     0
  0
DICTIONARY
  5
C74
330
11
100
AcDbDictionary
280
     1
281
     1
  3
ACAD_XREC_ROUNDTRIP
360
C75
  0
DICTIONARY
  5
C72
330
B
100
AcDbDictionary
280
     1
281
     1
  3
ACAD_XREC_ROUNDTRIP
360
C73
  0
XRECORD
  5
C75
102
{ACAD_REACTORS
330
C74
102
}
330
C74
100
AcDbXrecord
280
     1
102
SHADEPLOT
 70
     0
102
SHADEPLOTRESLEVEL
 70
     2
102
SHADEPLOTCUSTOMDPI
 70
   300
  0
XRECORD
  5
C73
102
{ACAD_REACTORS
330
C72
102
}
330
C72
100
AcDbXrecord
280
     1
102
SHADEPLOT
 70
     0
102
SHADEPLOTRESLEVEL
 70
     2
102
SHADEPLOTCUSTOMDPI
 70
   300
  0
ENDSEC
  0
EOF
